<?xml version="1.0" standalone="no"?>
<!DOCTYPE svg PUBLIC "-//W3C//DTD SVG 1.1//EN" "https://www.w3.org/Graphics/SVG/1.1/DTD/svg11.dtd" >
<!--
2013-9-30: Created.
-->
<svg>
<metadata>
Created by iconfont
</metadata>
<defs>

<font id="iconfont" horiz-adv-x="1024" >
  <font-face
    font-family="iconfont"
    font-weight="500"
    font-stretch="normal"
    units-per-em="1024"
    ascent="896"
    descent="-128"
  />
    <missing-glyph />
    
    <glyph glyph-name="x" unicode="x" horiz-adv-x="1001"
d="M281 543q-27 -1 -53 -1h-83q-18 0 -36.5 -6t-32.5 -18.5t-23 -32t-9 -45.5v-76h912v41q0 16 -0.5 30t-0.5 18q0 13 -5 29t-17 29.5t-31.5 22.5t-49.5 9h-133v-97h-438v97zM955 310v-52q0 -23 0.5 -52t0.5 -58t-10.5 -47.5t-26 -30t-33 -16t-31.5 -4.5q-14 -1 -29.5 -0.5
t-29.5 0.5h-32l-45 128h-439l-44 -128h-29h-34q-20 0 -45 1q-25 0 -41 9.5t-25.5 23t-13.5 29.5t-4 30v167h911zM163 247q-12 0 -21 -8.5t-9 -21.5t9 -21.5t21 -8.5q13 0 22 8.5t9 21.5t-9 21.5t-22 8.5zM316 123q-8 -26 -14 -48q-5 -19 -10.5 -37t-7.5 -25t-3 -15t1 -14.5
t9.5 -10.5t21.5 -4h37h67h81h80h64h36q23 0 34 12t2 38q-5 13 -9.5 30.5t-9.5 34.5q-5 19 -11 39h-368zM336 498v228q0 11 2.5 23t10 21.5t20.5 15.5t34 6h188q31 0 51.5 -14.5t20.5 -52.5v-227h-327z" />
    

    
    <glyph glyph-name="huifu" unicode="&#58906;" d="M841.8797 754.1291H186.7980096678416c-60.2936 0-109.1805-48.8829-109.1805-109.177v-491.29190408902764c0-60.2901 48.8869-109.176 109.1805-109.176h382.1305828187445l218.3609-163.763V44.48423968549321h54.590226026021426c60.2936 0 109.1805 48.8859 109.1805 109.176V644.9521224609715C951.0602 705.2462 902.1733 754.1291 841.8797 754.1291zM896.4699 153.6602c0-41.4729-9.383-54.588-54.5902-54.588h-109.18045205204285v-109.1749793639912l-109.1805 109.175H186.7980096678416c-45.2072 0-54.5902 13.1151-54.5902 54.588V644.9521224609715c0 41.4759 9.383 54.589 54.5902 54.589h655.0817129488516c45.2072 0 54.5902-13.1131 54.5902-54.589V153.66021837194387zM295.9775 481.1882h436.7218082081714v54.58798934322529h-436.7218082081714V481.1881544312956zM295.9775 262.8362h436.7218082081714v54.58798934322529h-436.7218082081714V262.8361970583944z"  horiz-adv-x="1000" />

    
    <glyph glyph-name="zhangjiezhuanhuan" unicode="&#58915;" d="M23.571456 509.406976l473.74848-258.187264c4.791296-2.594816 9.981952-3.893248 15.271936-3.893248 5.224448 0 10.415104 1.298432 15.13984 3.86048l478.74048 258.153472c10.446848 5.623808 16.935936 16.603136 16.769024 28.48256-0.165888 11.911168-6.852608 22.692864-17.434624 28.099584L531.990528 806.70592c-9.017344 4.575232-19.697664 4.608-28.781568 0.050176L24.502272 565.988096c-10.61376-5.34016-17.401856-16.137216-17.567744-28.015616C6.734848 526.093056 13.12256 515.079936 23.571456 509.406976zM517.48352 742.45504l405.039104-205.846528L512.692224 315.588352 107.619328 536.324864 517.48352 742.45504zM1000.315904 331.277056l-94.697472 48.113664-68.375552-36.88448 79.756288-40.543232L507.201536 80.959232 102.163456 301.67936l85.047296 42.789888-68.17792 37.183488-100.052992-50.30912c-10.580992-5.323776-17.368064-16.120832-17.568768-27.999232-0.166912-11.895808 6.254592-22.908928 16.636928-28.565504l473.782272-258.169856c4.757504-2.627584 10.015744-3.926016 15.27296-3.926016 5.190656 0 10.415104 1.26464 15.172608 3.826688l478.74048 258.2016c10.41408 5.59104 16.903168 16.587776 16.769024 28.466176C1017.617408 315.08864 1010.863104 325.88672 1000.315904 331.277056zM1000.315904 107.745024l-89.706496 44.121088-68.375552-36.867072 74.765312-36.569088L507.201536-142.605568 102.163456 78.131968l79.05792 35.801088-68.144128 37.167104-94.097408-43.288576c-10.580992-5.356544-17.368064-16.13824-17.568768-28.01664-0.166912-11.877376 6.254592-22.890496 16.636928-28.548096l473.782272-258.202624c4.757504-2.561024 10.015744-3.893248 15.27296-3.893248 5.190656 0 10.415104 1.298432 15.172608 3.861504l478.74048 258.168832c10.41408 5.62176 16.903168 16.570368 16.769024 28.481536C1017.617408 91.574016 1010.863104 102.353664 1000.315904 107.745024z"  horiz-adv-x="1024" />

    
    <glyph glyph-name="zan" unicode="&#58884;" d="M961.972 263.119c0 31.163-10.716 54.928-31.669 68.737 12.713 7.2 31.444 42.806 31.444 74.25-1.266 51.947-51.525 90.45-127.406 90.45h-201.206c34.453 93.769 27.956 220.219-15.244 287.719-26.016 40.613-57.262 49.725-78.947 49.725-73.012 0-75.403-70.341-75.403-94.275 0-80.044-11.559-116.522-25.959-150.159-11.419-21.769-81.309-93.375-152.719-93.375h-133.819c-51.666 0-89.128-43.256-89.044-104.822l34.706-366.216c4.191-56.419 31.894-90.591 87.469-90.591 0 0 27.675-0.225 48.403-0.225 10.575 0 20.447 0.084 26.297 0.225 17.128 0.563 31.247 11.531 43.734 20.756 8.831 6.497 15.834 12.15 22.191 12.15 2.841 0 19.069-9.309 38.981-17.775 20.306-8.578 52.509-15.694 83.306-15.694h279.872c93.825 0 138.881 35.156 138.881 93.769 0 17.325-3.994 27.591-13.612 41.006 37.659 9.028 71.072 32.709 71.072 73.547 0 15.159-7.144 39.516-16.903 45.984 18.422 4.697 55.631 37.547 55.575 74.813zM257.497-28.538c-16.762-0.534-76.894 0-77.288 0-21.572 0-40.697 20.334-45.563 47.644l-34.706 380.7c0 28.491 22.922 59.709 53.522 59.709v-0.197l131.4-0.394c2.25 0 4.472 0.281 6.694 0.366v-465.722c-6.075-4.247-11.756-8.353-15.806-11.334-5.569-4.106-14.878-10.378-18.253-10.772zM871.156 213.225c-0.056 0-5.062 0-5.091 0l0.478-33.975c4.078-1.547 19.125-6.075 19.153-35.606 0-31.641-41.569-44.353-76.584-44.353h0.084l-0.591-32.372c14.259-3.178 19.378-15.638 19.35-35.55 0-34.819-28.294-59.906-101.784-59.906h-289.828c-13.866 0-42.019 8.072-58.247 15.919-15.3 7.397-39.825 21.234-48.291 25.819v452.25c72.872 20.194 133.031 83.053 148.219 112.078 16.509 38.391 24.778 78.525 24.778 166.556 0 43.734 16.059 49.613 33.159 49.613 15.131 0 39.178-16.678 51.328-35.691 35.972-56.166 44.381-177.159-0.366-267.778l-7.706-31.359 256.866 0.056c43.734-2.391 87.694-20.278 87.694-52.537l-0.309-10.097c0.141-0.422-1.069-27.956-15.722-40.106-12.291-10.209-22.247-10.547-22.247-10.547l-0.281-33.441c0 0 14.822-1.997 22.556-7.313 11.644-7.987 16.931-23.119 16.312-39.656-0.759-20.925-33.103-52.003-52.931-52.003z"  horiz-adv-x="1024" />

    
    <glyph glyph-name="back" unicode="&#58881;" d="M694.009-71.111c-13.981 0-27.962 5.315-38.629 15.984l-400.462 400.462c-21.335 21.299-21.335 55.888 0 77.223l400.462 400.498c21.335 21.335 55.888 21.335 77.223 0 21.335-21.299 21.335-55.888 0-77.223l-361.831-361.868 361.831-361.831c21.335-21.335 21.335-55.888 0-77.223-10.631-10.704-24.612-16.020-38.593-16.020z"  horiz-adv-x="1024" />

    
    <glyph glyph-name="add" unicode="&#58902;" d="M882.789 444.949h-309.794v309.84h-121.943v-309.84h-309.84v-121.943h309.84v-309.794h121.943v309.794h309.794z"  horiz-adv-x="1024" />

    
    <glyph glyph-name="v" unicode="&#58883;" d="M635.26286 685.960399l323.146794 0 0-43.970444c-78.712713-7.334036-134.650723-54.963823-167.776168-142.906757l-236.146325-582.609151L448.832843-83.525953 200.257441 526.556922c-28.992311 65.959248-74.571393 104.423281-136.715755 115.433032l0 43.970444L486.114958 685.960399l0-43.970444c-91.156116-3.674693-120.146381-38.482453-86.999446-104.440677l167.796634-456.165344 174.004009 445.171965c37.262672 76.95058 2.046612 115.433032-105.654318 115.433032L635.261836 685.960399 635.26286 685.960399zM635.26286 685.960399"  horiz-adv-x="1024" />

    
    <glyph glyph-name="iconfontcolor94" unicode="&#58910;" d="M512 812C229.248 812 0 582.784 0 300s229.248-512 512-512c282.784 0 512 229.216 512 512S794.784 812 512 812zM833.184 468.288 451.344 86.432c-6.288-6.288-14.56-9.408-22.816-9.344-8.224-0.032-16.432 3.056-22.72 9.344L190.848 301.408c-12.496 12.496-12.496 32.752 0 45.248s32.784 12.496 45.248 0l192.464-192.464 359.344 359.344c12.528 12.496 32.784 12.496 45.28 0S845.664 480.784 833.184 468.288z"  horiz-adv-x="1024" />

    
    <glyph glyph-name="zengjia" unicode="&#58900;" d="M480 725.334c194.048 0 352-157.888 352-352 0-194.048-157.952-352-352-352s-352 157.952-352 352c0 194.112 157.952 352 352 352M480 789.334c-229.696 0-416-186.24-416-416 0-229.696 186.304-416 416-416s416 186.304 416 416c0 229.76-186.304 416-416 416v0zM704 405.334h-192v192h-64v-192h-192v-64h192v-192h64v192h192z"  horiz-adv-x="1024" />

    
    <glyph glyph-name="right" unicode="&#58911;" d="M511.632 5.956l400.802 377.593-400.802 377.593c-16.455 15.501-17.226 41.407-1.726 57.861 15.501 16.454 41.407 17.227 57.862 1.725l432.428-407.385c0.035-0.033 0.065-0.067 0.1-0.099 0.259-0.246 0.511-0.503 0.764-0.757 0.256-0.256 0.515-0.509 0.762-0.77 0.032-0.034 0.067-0.065 0.098-0.099 0.148-0.158 0.284-0.321 0.43-0.48 0.304-0.333 0.608-0.664 0.899-1.005 0.138-0.162 0.269-0.328 0.405-0.492 0.309-0.372 0.617-0.746 0.911-1.127 0.126-0.163 0.244-0.33 0.366-0.493 0.288-0.385 0.573-0.77 0.845-1.161 0.128-0.185 0.249-0.374 0.374-0.56 0.251-0.375 0.501-0.749 0.739-1.131 0.136-0.219 0.264-0.442 0.396-0.663 0.211-0.353 0.423-0.706 0.622-1.065 0.144-0.259 0.278-0.521 0.415-0.781 0.172-0.325 0.346-0.65 0.509-0.978 0.149-0.302 0.288-0.607 0.429-0.912 0.136-0.294 0.275-0.586 0.404-0.883 0.147-0.339 0.283-0.68 0.421-1.022 0.108-0.269 0.22-0.536 0.322-0.807 0.139-0.367 0.266-0.739 0.395-1.109 0.087-0.251 0.177-0.499 0.258-0.751 0.126-0.389 0.239-0.78 0.354-1.171 0.070-0.239 0.143-0.478 0.209-0.718 0.108-0.4 0.205-0.801 0.301-1.203 0.056-0.237 0.117-0.474 0.17-0.711 0.088-0.401 0.165-0.804 0.241-1.208 0.046-0.245 0.096-0.487 0.137-0.733 0.067-0.393 0.122-0.787 0.177-1.181 0.037-0.259 0.076-0.518 0.107-0.777 0.045-0.377 0.080-0.754 0.116-1.132 0.027-0.28 0.055-0.561 0.076-0.842 0.026-0.355 0.041-0.71 0.057-1.066 0.014-0.304 0.031-0.609 0.038-0.913 0.008-0.331 0.006-0.661 0.006-0.993 0-0.331 0.002-0.662-0.006-0.993-0.007-0.305-0.024-0.609-0.038-0.913-0.016-0.355-0.032-0.711-0.057-1.066-0.020-0.28-0.049-0.561-0.076-0.841-0.035-0.378-0.070-0.755-0.116-1.133-0.032-0.259-0.071-0.517-0.107-0.776-0.055-0.395-0.111-0.789-0.178-1.183-0.042-0.245-0.091-0.487-0.137-0.731-0.077-0.404-0.152-0.807-0.241-1.21-0.052-0.236-0.113-0.472-0.169-0.708-0.096-0.403-0.193-0.806-0.302-1.208-0.064-0.238-0.137-0.476-0.207-0.713-0.115-0.393-0.229-0.787-0.355-1.177-0.081-0.25-0.17-0.496-0.256-0.744-0.129-0.374-0.257-0.746-0.397-1.116-0.101-0.268-0.212-0.533-0.319-0.799-0.139-0.344-0.275-0.689-0.425-1.030-0.128-0.294-0.266-0.583-0.4-0.875-0.142-0.307-0.282-0.615-0.433-0.92-0.161-0.325-0.333-0.646-0.502-0.967-0.14-0.265-0.276-0.531-0.422-0.793-0.196-0.353-0.405-0.701-0.613-1.050-0.135-0.226-0.266-0.454-0.405-0.678-0.233-0.375-0.48-0.743-0.726-1.11-0.13-0.193-0.254-0.389-0.387-0.58-0.267-0.384-0.546-0.761-0.828-1.138-0.129-0.172-0.252-0.347-0.384-0.517-0.288-0.372-0.588-0.737-0.889-1.101-0.143-0.173-0.281-0.348-0.428-0.519-0.282-0.33-0.577-0.651-0.872-0.973-0.152-0.168-0.297-0.34-0.453-0.506-0.033-0.035-0.069-0.068-0.101-0.102-0.27-0.284-0.554-0.561-0.833-0.839-0.24-0.239-0.478-0.484-0.723-0.716-0.024-0.021-0.044-0.045-0.068-0.067l-432.43-407.387c-7.906-7.448-17.993-11.139-28.060-11.139-10.886 0-21.748 4.316-29.802 12.864-15.5 16.455-14.728 42.361 1.726 57.861z"  horiz-adv-x="1024" />

    
    <glyph glyph-name="user" unicode="&#58893;" d="M622.816 214.613c-22.112 3.52-22.624 64.32-22.624 64.32s64.96 64.32 79.136 150.816c38.080 0 61.632 91.936 23.52 124.288 1.6 34.048 48.96 267.328-190.848 267.328s-192.448-233.28-190.88-267.328c-38.080-32.352-14.56-124.288 23.52-124.288 14.144-86.496 79.136-150.816 79.136-150.816s-0.512-60.8-22.624-64.32c-71.232-11.328-337.184-128.64-337.184-257.28h896c0 128.64-265.952 245.92-337.184 257.28z"  horiz-adv-x="1024" />

    
    <glyph glyph-name="xia" unicode="&#58890;" d="M897.658 641.384l-386.084-386.084-386.085 386.084-64.342-64.342 450.428-450.427 450.426 450.426-64.342 64.343zM897.658 641.384z"  horiz-adv-x="1025" />

    
    <glyph glyph-name="shuaxin" unicode="&#58880;" d="M886.911 240.858c-15.376 6.127-43.962-4.033-49.802-18.747-50.782-128.030-172.167-210.755-309.247-210.755-183.488 0-332.763 150.132-332.763 334.639 0 184.523 149.274 334.638 332.763 334.638 62.317 0 123.047-17.409 175.649-50.353 0.983-0.608 2.037-1.018 3.054-1.5l-87.279-31.622c-14.804-5.357-24.644-30.427-19.304-45.301 4.198-11.678 21.624-23.285 33.286-23.285 3.212 0 10.803 0.555 13.999 1.715l160.042 70.977c7.463 2.715 13.59 8.303 16.963 15.535 3.375 7.232 3.769 15.534 1.072 23.052l-56.923 158.845c-5.625 15.678-19.553 36.765-42.712 33.282-16.373-2.465-27.98-25.087-22.355-40.764l31.552-88.048c-63.55 38.355-136.241 58.764-210.807 58.764-226.234 0-410.277-185.077-410.277-412.58 0-227.52 184.042-412.614 410.277-412.614 169.005 0 318.655 101.993 381.259 259.839 6.142 15.481-3.071 38.104-18.444 44.283z"  horiz-adv-x="1024" />

    
    <glyph glyph-name="shoucang" unicode="&#58885;" d="M935.23535 486.68789c-0.735757 15.471366-6.258541 38.702464-11.975752 56.434314-15.652492 48.543599-39.016619 81.516572-55.861262 100.629885-21.007453 23.837918-45.874817 42.575678-73.91136 55.694463-32.275077 15.101953-68.817342 22.759353-108.612697 22.759353l-0.170892 0c-56.713676-0.030699-109.705588-20.546965-149.21544-57.766658-8.758478-8.249895-16.671705-17.155728-23.693632-26.612101C473.027383 689.650441 411.342486 723.230234 342.003258 723.230234c-52.806693 0-99.281167-12.526291-138.130987-37.230949-31.381731-19.955494-57.338916-47.537689-77.149101-81.978083-32.629141-56.730049-37.302581-113.579825-37.485753-115.972315l-0.118704-1.558495 0-1.562589c0-22.658046 0-48.338938 7.645121-77.420277 7.67582-29.199019 19.301602-64.87045 48.613184-96.748485l366.375342-395.10364 370.251625 396.666228c34.788318 44.39 43.892673 77.335343 50.850132 119.356388C937.450808 459.433152 936.072415 479.26278 935.23535 486.68789zM846.760297 334.220383 511.832178-21.141114 178.402179 334.501792c-56.964386 76.185146-48.351218 102.897531-48.351218 150.426011 0 0 15.093766 197.370183 211.952296 197.370183 52.571333 1.387603 147.228179-41.571814 171.360809-134.521786-0.481977 1.858324 35.729759 138.828882 171.360809 133.49848 186.229448-7.318686 210.593346-190.898795 209.689766-198.027146C894.414643 483.247534 903.754359 413.234971 846.760297 334.220383z"  horiz-adv-x="1024" />

    
    <glyph glyph-name="ip" unicode="&#58894;" d="M659.308691 606.497502c-8.183816 1.022977-25.574426 2.045954-51.148851 2.045954l-34.781219 0 0-99.228771 38.873127 0c27.62038 0 47.056943 2.045954 56.263736 6.137862 9.206793 4.091908 16.367632 9.206793 22.505495 17.390609 5.114885 8.183816 8.183816 17.390609 8.183816 27.62038 0 13.298701-4.091908 22.505495-11.252747 31.712288C680.791209 599.336663 671.584416 604.451548 659.308691 606.497502zM893.57043 643.324675c-20.45954 49.102897-51.148851 94.113886-88.999001 130.941059-36.827173 36.827173-81.838162 67.516484-130.941059 88.999001-49.102897 20.45954-104.343656 32.735265-160.607393 32.735265-57.286713 0-111.504496-11.252747-160.607393-32.735265-49.102897-20.45954-94.113886-51.148851-130.941059-88.999001-36.827173-36.827173-67.516484-81.838162-88.999001-130.941059s-32.735265-103.320679-32.735265-160.607393 11.252747-111.504496 32.735265-160.607393c12.275724-29.666334 27.62038-56.263736 47.056943-82.861139 0 0 294.617383-346.789211 298.709291-351.904096 4.091908-4.091908 10.22977-8.183816 15.344655-11.252747 6.137862-3.068931 13.298701-4.091908 19.436563-4.091908 7.160839 0 13.298701 1.022977 19.436563 4.091908 6.137862 3.068931 11.252747 6.137862 15.344655 11.252747 4.091908 4.091908 298.709291 351.904096 298.709291 351.904096 18.413586 25.574426 34.781219 53.194805 47.056943 82.861139 20.45954 49.102897 32.735265 104.343656 32.735265 160.607393S914.02997 594.221778 893.57043 643.324675zM436.2997 318.017982l-70.585415 0 0 350.881119 70.585415 0L436.2997 318.017982zM760.583417 506.245754c-8.183816-14.321678-18.413586-26.597403-29.666334-34.781219-12.275724-8.183816-24.551449-13.298701-36.827173-16.367632-17.390609-4.091908-41.942058-5.114885-73.654346-5.114885l-46.033966 0 0-132.987013-70.585415 0 0 350.881119 113.55045 0c42.965035 0 70.585415-1.022977 83.884116-5.114885 20.45954-5.114885 36.827173-16.367632 50.125874-34.781219 13.298701-18.413586 20.45954-39.896104 20.45954-68.539461C772.859141 538.981019 768.767233 520.567433 760.583417 506.245754z"  horiz-adv-x="1024" />

    
    <glyph glyph-name="tuichu" unicode="&#58920;" d="M512 385.786829 512 385.786829c-15.071254 0-27.288506 12.217253-27.288506 27.288506l0 327.457983c0 15.071254 12.217253 27.288506 27.288506 27.288506l0 0c15.071254 0 27.288506-12.217253 27.288506-27.288506l0-327.457983C539.287483 398.005105 527.07023 385.786829 512 385.786829zM648.440485 703.308509 648.440485 703.308509c0-10.618848 6.336312-19.97903 15.918551-24.555256 134.13293-64.065108 222.033909-209.884195 198.611453-372.614439-22.644743-157.327188-152.412248-282.476513-310.379003-300.114219C338.895477-17.835835 157.25351 149.51873 157.25351 358.499345c0 141.097552 82.83459 263.160585 202.40178 320.261071 9.573029 4.571109 15.903202 13.923104 15.903202 24.531719l0 0c0 19.892049-20.838607 33.238009-38.809911 24.708751-139.564639-66.237587-235.814774-208.795397-234.047524-373.971343 2.290159-214.122729 175.73135-394.380162 389.632021-404.391167 235.005338-10.997472 428.989401 176.276772 428.989401 408.861992 0 163.355485-95.862301 304.000736-234.277768 369.598756C669.144016 736.58131 648.440485 723.11767 648.440485 703.308509z"  horiz-adv-x="1024" />

    
    <glyph glyph-name="dianhua" unicode="&#58888;" d="M456.546 326.88c-71.483 71.444-139.815 154.23-107.047 186.919 46.789 46.828 87.591 75.658 4.647 178.885-82.905 103.266-138.24 23.985-183.611-21.425-52.303-52.342-2.757-247.454 190.11-440.359 192.827-192.827 388.017-242.412 440.399-190.031 45.371 45.332 124.613 100.628 21.386 183.572-103.148 82.983-132.096 42.181-178.924-4.608-32.807-32.65-115.476 35.604-186.959 107.047v0 0z"  horiz-adv-x="1024" />

    
    <glyph glyph-name="gouwuche" unicode="&#58919;" d="M994.372267 623.0016c-21.674667-45.8752-117.3504-266.786133-130.389333-287.232-1.536-2.423467-2.935467-4.8128-4.266667-7.0656-12.6976-21.777067-26.112-38.434133-72.465067-38.434133L345.4976 290.269867c9.284267-28.125867 28.535467-62.839467 68.642133-62.839467l382.429867 0c11.332267 0 20.48-9.181867 20.48-20.48 0-11.298133-9.147733-20.48-20.48-20.48L414.139733 186.4704c-56.763733 0-98.167467 44.4416-113.664 112.5376-8.533333 37.546667-112.0256 383.8976-119.432533 411.0336-7.953067 17.237333-26.4192 29.627733-44.373333 29.627733L42.496 739.669333c-11.298133 0-20.48 9.181867-20.48 20.48 0 11.298133 9.181867 20.445867 20.48 20.445867l94.173867 0c35.1232 0 68.266667-1.877333 82.5344-35.157333 0.375467-0.887467 0.682667-1.7408 0.955733-2.696533 4.061867-14.882133 89.873067-319.1808 114.346667-411.5456l452.744533 0c26.555733 0 29.218133 4.539733 37.102933 18.1248 1.604267 2.730667 3.242667 5.5296 5.085867 8.430933 12.151467 19.080533 107.1104 238.6944 127.351467 281.3952 8.430933 22.084267 6.894933 34.0992 4.573867 37.512533-1.536 2.184533-6.417067 3.515733-13.1072 3.515733-44.373333-0.648533-606.685867-0.034133-626.210133 0-11.332267 0.034133-20.48 9.181867-20.445867 20.48 0.034133 11.332267 9.181867 20.445867 20.48 20.445867l0.034133 0c4.8128 0 581.5296-0.682667 625.8688 0 26.965333 0 40.516267-11.5712 47.172267-21.2992C1007.4112 681.949867 1007.138133 656.0768 994.372267 623.0016zM403.285333 166.161067c52.736 0 95.6416-42.9056 95.6416-95.6416 0-52.736-42.9056-95.675733-95.6416-95.675733s-95.6416 42.939733-95.6416 95.675733C307.677867 123.221333 350.549333 166.161067 403.285333 166.161067zM403.285333 14.1312c31.061333 0 56.32 25.2928 56.32 56.354133 0 31.061333-25.258667 56.32-56.32 56.32-31.0272 0-56.285867-25.258667-56.285867-56.32C346.999467 39.424 372.258133 14.1312 403.285333 14.1312zM792.405333 166.161067c52.736 0 95.6416-42.9056 95.6416-95.6416 0-52.736-42.9056-95.675733-95.6416-95.675733-52.736 0-95.6416 42.939733-95.6416 95.675733C696.797867 123.221333 739.669333 166.161067 792.405333 166.161067zM792.405333 14.1312c31.061333 0 56.32 25.2928 56.32 56.354133 0 31.061333-25.258667 56.32-56.32 56.32-31.0272 0-56.285867-25.258667-56.285867-56.32C736.119467 39.424 761.378133 14.1312 792.405333 14.1312z"  horiz-adv-x="1024" />

    
    <glyph glyph-name="zuo" unicode="&#58887;" d="M209.991 490.775l302.009-302.009 302.009 302.009h-604.020z"  horiz-adv-x="1024" />

    
    <glyph glyph-name="shenglvehao" unicode="&#58882;" d="M29.461 374.832c0-52.532 42.586-95.117 95.117-95.117s95.117 42.586 95.117 95.117c0 52.532-42.586 95.117-95.117 95.117-52.532 0-95.117-42.586-95.117-95.117 0 0 0 0 0 0zM417.499 374.832c0 0 0 0 0 0 0-52.532 42.586-95.117 95.117-95.117 52.532 0 95.117 42.586 95.117 95.117 0 0 0 0 0 0 0 52.532-42.586 95.117-95.117 95.117-52.532 0-95.117-42.586-95.117-95.117zM805.536 374.832c0-52.532 42.586-95.117 95.117-95.117s95.117 42.586 95.117 95.117c0 52.532-42.586 95.117-95.117 95.117-52.532 0-95.117-42.586-95.117-95.117z"  horiz-adv-x="1024" />

    
    <glyph glyph-name="talk" unicode="&#58907;" d="M574.647 98.895c155.453 107.434 234.568 271.716 274.445 381.788s71.723 290.158 71.723 290.158h-722.856c0 0 55.714-170.396 67.667-304.62 5.006-56.222 13.832-131.457 3.606-255.387-0.073-0.887-0.147-1.773-0.222-2.659-10.491-122.933-44.294-237.792-44.294-237.792 0 0 194.48 21.080 349.933 128.513z"  horiz-adv-x="1103" />

    
    <glyph glyph-name="yes" unicode="&#58903;" d="M737.082 773.721c-214.896 124.071-490.657 50.18-614.726-164.715-35.856-62.103-56.562-132.563-59.873-203.765-3.535-75.898 12.382-152.108 46.004-220.393 8.453-17.138 29.201-24.198 46.343-15.76 17.155 8.441 24.208 29.196 15.76 46.343-28.47 57.828-41.94 122.347-38.947 186.6 2.837 61.052 19.883 119.039 50.666 172.361 104.982 181.833 338.322 244.356 520.154 139.374s244.356-338.32 139.374-520.153-338.32-244.356-520.152-139.375c-16.561 9.562-37.727 3.891-47.287-12.669-9.562-16.561-3.891-37.725 12.669-47.287 214.896-124.070 490.657-50.18 614.726 164.715 124.072 214.895 50.181 490.656-164.714 614.725zM512 184.487l282.85 282.85c14.648 14.647 14.648 38.386 0 53.033-14.647 14.648-38.386 14.648-53.033 0l-256.333-256.334-203.299 203.299c-14.647 14.648-38.386 14.648-53.033 0-14.648-14.648-14.648-38.386 0-53.034l229.815-229.815c14.648-14.649 38.386-14.649 53.033 0z"  horiz-adv-x="1025" />

    
    <glyph glyph-name="more" unicode="&#58886;" d="M509.878 320.733c59.443 0 107.63 48.189 107.63 107.63s-48.189 107.63-107.63 107.63c-59.443 0-107.63-48.189-107.63-107.63s48.189-107.63 107.63-107.63zM878.897 320.733c59.443 0 107.63 48.189 107.63 107.63s-48.189 107.63-107.63 107.63c-59.443 0-107.63-48.189-107.63-107.63s48.189-107.63 107.63-107.63zM140.856 320.733c59.443 0 107.63 48.189 107.63 107.63s-48.189 107.63-107.63 107.63-107.63-48.189-107.63-107.63 48.189-107.63 107.63-107.63z"  horiz-adv-x="1024" />

    
    <glyph glyph-name="yue" unicode="&#58904;" d="M84.199169 164.458865c-10.738575 0-19.442818 8.705266-19.442818 19.442818L64.756351 639.976976c0 21.643949 17.609053 39.253002 39.254026 39.253002l161.557536 0c10.737552 0 19.442818-8.705266 19.442818-19.442818s-8.705266-19.442818-19.442818-19.442818L104.010377 640.344343c-0.202615 0-0.36839-0.164752-0.36839-0.367367l0-456.075293C103.641987 173.164131 94.936721 164.458865 84.199169 164.458865zM758.328733 517.100414c-10.737552 0-19.442818 8.704243-19.442818 19.442818L738.885915 639.976976c0 0.202615-0.165776 0.367367-0.36839 0.367367l-63.644529 0c-10.737552 0-19.442818 8.705266-19.442818 19.442818s8.705266 19.442818 19.442818 19.442818l63.644529 0c21.644973 0 39.254026-17.609053 39.254026-39.253002l0-103.433744C777.771551 525.80568 769.066285 517.100414 758.328733 517.100414zM265.583263 640.340249c-7.052626 0-13.856589 3.848655-17.305131 10.552334-4.912893 9.54847-1.154289 21.271466 8.394181 26.183336L538.068214 821.845093c9.546424 4.912893 21.271466 1.154289 26.184359-8.394181 4.91187-9.54847 1.154289-21.271466-8.394181-26.183336L274.461467 642.498402C271.616676 641.035074 268.576433 640.340249 265.583263 640.340249zM388.975571 609.64618c-7.05365 0-13.856589 3.848655-17.305131 10.552334-4.912893 9.54847-1.154289 21.271466 8.394181 26.183336l223.007073 114.730021c9.547447 4.912893 21.271466 1.154289 26.184359-8.394181 4.91187-9.54847 1.154289-21.271466-8.394181-26.183336L397.853775 611.804333C395.008984 610.339981 391.968741 609.64618 388.975571 609.64618zM869.367689 164.460912 740.016669 164.460912c-48.784076 0-88.471984 39.687908-88.471984 88.470961 0 48.784076 39.687908 88.471984 88.471984 88.471984l129.35102 0c48.783053 0 88.470961-39.687908 88.470961-88.471984C957.838649 204.148819 918.150742 164.460912 869.367689 164.460912zM740.016669 302.518221c-27.342742 0-49.586348-22.243607-49.586348-49.586348 0-27.341718 22.243607-49.585325 49.586348-49.585325l129.35102 0c27.341718 0 49.585325 22.243607 49.585325 49.585325 0 27.342742-22.243607 49.586348-49.585325 49.586348L740.016669 302.518221zM819.106981-55.07613 115.651508-55.07613c-28.064172 0-50.895157 22.832008-50.895157 50.895157L64.756351 505.090892c0 28.064172 22.832008 50.895157 50.895157 50.895157l703.455473 0c28.064172 0 50.895157-22.832008 50.895157-50.895157l0-183.129854-38.885636 0L831.116503 505.090892c0 6.621814-5.387707 12.009522-12.009522 12.009522L115.651508 517.100414c-6.621814 0-12.009522-5.387707-12.009522-12.009522l0-509.271866c0-6.622838 5.387707-12.009522 12.009522-12.009522l703.455473 0c6.622838 0 12.009522 5.387707 12.009522 12.009522L831.116503 183.903729l38.885636 0 0-188.084703C870.002139-32.245146 847.171154-55.07613 819.106981-55.07613zM792.295336 233.489054l-23.065322 0c-10.737552 0-19.442818 8.705266-19.442818 19.442818s8.705266 19.442818 19.442818 19.442818l23.065322 0c10.737552 0 19.442818-8.705266 19.442818-19.442818S803.032888 233.489054 792.295336 233.489054zM674.887322 640.343319c-5.91778 0-11.760858 2.690272-15.58086 7.792477l-62.905702 84.035952c-6.434549 8.595772-4.681626 20.781302 3.914146 27.215852 8.596795 6.434549 20.782326 4.682649 27.216875-3.914146l62.905702-84.035952c6.434549-8.595772 4.681626-20.781302-3.914146-27.215852C683.028747 641.607102 678.940638 640.343319 674.887322 640.343319z"  horiz-adv-x="1024" />

    
    <glyph glyph-name="13zhibo" unicode="&#58922;" d="M399.86406 296.051949 640.795365 450.904783 399.86406 605.745337 399.86406 296.051949ZM394.618593 296.051949M869.927949 136.231987 154.946978 136.231987c-49.753147 0-90.231047 40.4779-90.231047 90.231047L64.715931 671.59816c0 49.753147 40.4779 90.230024 90.231047 90.230024l714.980971 0c49.753147 0 90.231047-40.476877 90.231047-90.230024l0-445.13615C960.158996 176.709887 919.681096 136.231987 869.927949 136.231987zM154.946978 720.895937c-27.183106 0-49.298799-22.11467-49.298799-49.297776l0-445.13615c0-27.183106 22.11467-49.298799 49.298799-49.298799l714.980971 0c27.183106 0 49.298799 22.11467 49.298799 49.298799L919.226748 671.59816c0 27.183106-22.11467 49.297776-49.298799 49.297776L154.946978 720.895937zM660.533918 5.039016 364.346125 5.039016c-11.302417 0-20.466124 9.162684-20.466124 20.466124s9.163707 20.466124 20.466124 20.466124l296.187793 0c11.30344 0 20.466124-9.162684 20.466124-20.466124S671.837358 5.039016 660.533918 5.039016z"  horiz-adv-x="1024" />

    
    <glyph glyph-name="nianxian" unicode="&#58895;" d="M512 24v0c198.822 0 360 161.178 360 360s-161.178 360-360 360c-198.822 0-360-161.178-360-360 0-198.822 161.178-360 360-360v0zM512-36v0c-231.961 0-420 188.039-420 420s188.039 420 420 420c231.961 0 420-188.039 420-420 0-231.961-188.039-420-420-420v0zM482 504v-160.503c0-16.567 13.433-30 30-30h191.57c16.569 0 30 13.433 30 30s-13.431 30-30 30h-191.57l30-30v160.503c0 16.567-13.433 30-30 30s-30-13.433-30-30v0z"  horiz-adv-x="1024" />

    
    <glyph glyph-name="qun" unicode="&#58896;" d="M473.177 342.23c49.776 35.086 82.383 92.932 82.383 158.482 0 107.106-86.832 193.937-193.935 193.937s-193.935-86.832-193.935-193.937c0-69.533 36.693-130.325 91.667-164.56-106.664-42.718-184.108-142.762-193.986-262.098h51.896c12.982 130.662 123.189 232.722 257.289 232.722s244.306-102.061 257.289-232.722h51.948c-10.397 125.466-95.47 229.542-210.615 268.175zM361.625 358.495c-78.557 0-142.219 63.663-142.219 142.218 0 78.558 63.663 142.22 142.219 142.22 78.557 0 142.219-63.663 142.219-142.22 0.001-78.557-63.661-142.218-142.219-142.218zM754.435 342.23c49.776 35.086 82.383 92.932 82.383 158.482 0 107.106-86.832 193.937-193.935 193.937-32.272 0-62.697-7.894-89.469-21.84 18.026-9.391 34.392-21.529 48.542-35.863 12.962 3.888 26.699 5.986 40.928 5.986 78.557 0 142.219-63.663 142.219-142.22 0.001-78.557-63.662-142.218-142.219-142.218-14.277 0-28.056 2.112-41.057 6.023-8.091-8.177-16.9-15.642-26.328-22.288 25.936-8.701 50.339-20.735 72.714-35.573 2.526 0.072 5.056 0.12 7.599 0.12 134.1 0 244.306-102.061 257.289-232.722h51.947c-10.395 125.466-95.467 229.542-210.613 268.175z"  horiz-adv-x="1025" />

    
    <glyph glyph-name="taocan" unicode="&#58916;" d="M981.798042 75.61796 530.535867-111.134229c-5.673596-2.478629-11.913409-3.811769-18.517102-3.811769-6.597166 0-12.843507 1.33314-18.515471 3.811769l-451.255648 186.752189C25.145272 82.528423 13.054002 99.361559 13.054002 118.942562l0 717.224418C13.054002 861.994324 34.005676 882.945998 59.83302 882.945998c6.336086 0 12.358877-1.280924 17.85298-3.544162l0 0 0.089746-0.044057c0.177861-0.045689 0.311664-0.133804 0.4471-0.179493L512.018765 699.698808l433.808974 179.479478c0.127277 0.045689 0.267607 0.133804 0.440573 0.179493l0.089746 0.044057c5.494103 2.256711 11.518525 3.544162 17.848085 3.544162 25.833871 0 46.779017-20.951674 46.779017-46.779017l0-717.224418C1010.983528 99.361559 998.892258 82.528423 981.798042 75.61796L981.798042 75.61796 981.798042 75.61796zM491.97924 660.052171l-438.227753 179.020956-0.623329-719.92007L491.959659-67.64482 491.97924 660.052171 491.97924 660.052171zM533.415907 656.534118l-1.365775-723.477285 438.859241 184.253979 0 721.481655L533.415907 656.534118 533.415907 656.534118zM533.415907 656.534118M512.018765-128c-8.261552 0-16.206544 1.63175-23.619585 4.851194l-451.144689 186.7065C14.662908 72.682441 0 94.4402 0 118.942562l0 717.224418c0 32.992359 26.840661 59.83302 59.83302 59.83302 7.820979 0 15.473888-1.512633 22.743336-4.49384 0.265975-0.1028 0.499316-0.200705 0.703284-0.292083L512.018765 713.826502l428.690173 177.361466c0.203969 0.091378 0.437309 0.190915 0.700021 0.293715 7.305346 2.997525 14.974572 4.518317 22.797183 4.518317 32.992359 0 59.83302-26.840661 59.83302-59.83302l0-717.224418c0-24.500731-14.659645-46.256857-37.349132-55.427294L535.636719-123.150438C528.223677-126.36825 520.278685-128 512.018765-128zM59.83302 869.891995c-18.595426 0-33.725015-15.127957-33.725015-33.725015l0-717.224418c0-13.804607 8.255025-26.060684 21.029998-31.220278L498.729791-99.171868c4.131592-1.804716 8.602588-2.720128 13.290606-2.720128s9.159014 0.915412 13.292238 2.720128l0.23334 0.099537 451.260543 186.752189c12.872878 5.203652 21.124639 17.458096 21.124639 31.262704l0 717.224418c0 18.595426-15.127957 33.725015-33.725015 33.725015-4.273554 0-8.481838-0.812612-12.512261-2.413359l-1.143857-0.474839L512.018765 685.572746l-439.653903 181.900995C68.345861 869.077752 64.13105 869.891995 59.83302 869.891995zM505.013661-87.387367l-464.946033 197.913361 0.646173 747.974752L505.033242 668.819566 505.013661-87.387367zM66.188687 127.780122 478.907288-47.900642l0.017949 699.183787-412.136066 168.362363L66.188687 127.780122zM518.960231-86.5976l1.419623 751.842001L983.965007 858.371838l0-749.738675L518.960231-86.5976zM546.453592 647.823835l-1.311927-695.11257 412.713706 173.275563 0 693.224635L546.453592 647.823835zM153.474274 584.386279l16.080899 36.707855L418.977995 511.81908 402.895464 475.109593 153.474274 584.386279 153.474274 584.386279zM153.474274 584.386279M409.61338 457.914209l-273.334491 119.754154 26.556736 60.621155L436.17338 518.536996 409.61338 457.914209zM170.669658 591.104195 396.177548 492.304978l5.605062 12.796186-225.50789 98.797585L170.669658 591.104195zM153.480801 411.688355l16.080899 36.707855L418.984522 339.121156l-16.082531-36.706223L153.480801 411.688355 153.480801 411.688355zM153.480801 411.688355M409.619907 285.217917l-273.334491 119.752522 26.556736 60.621155L436.179907 345.839072 409.619907 285.217917zM170.676185 418.406271l225.50789-98.797585 5.605062 12.792922-225.509522 98.797585L170.676185 418.406271zM153.485696 239.915633l16.082531 36.707855 249.427718-109.270158-16.080899-36.707855L153.485696 239.915633 153.485696 239.915633zM153.485696 239.915633M409.634593 113.450091l-273.344282 119.747627 26.559999 60.621155 273.341018-119.747627L409.634593 113.450091zM170.68108 246.633549l225.514417-98.79269 5.605062 12.794554-225.514417 98.79269L170.68108 246.633549zM623.1687 475.142228l-16.080899 36.707855 249.421191 109.270158 16.080899-36.707855L623.1687 475.142228 623.1687 475.142228zM623.1687 475.142228M616.450784 457.946844l-26.558368 60.621155L863.228539 638.315626l26.558368-60.621155L616.450784 457.946844zM624.283185 505.130535l5.605062-12.792922 225.50789 98.79269-5.605062 12.792922L624.283185 505.130535zM623.175227 302.450832l-16.080899 36.707855L856.522045 448.428844l16.080899-36.707855L623.175227 302.450832 623.175227 302.450832zM623.175227 302.450832M616.457311 285.255447l-26.558368 60.622787 273.34265 119.745995 26.558368-60.621155L616.457311 285.255447zM624.289712 332.44077l5.605062-12.794554 225.514417 98.794321-5.605062 12.792922L624.289712 332.44077zM623.188281 130.683005l-16.080899 36.707855 249.421191 109.270158 16.080899-36.707855L623.188281 130.683005 623.188281 130.683005zM623.188281 130.683005M616.468733 113.487621l-26.558368 60.621155 273.336123 119.747627 26.558368-60.621155L616.468733 113.487621zM624.302766 160.672944l5.605062-12.794554 225.50789 98.79269-5.605062 12.794554L624.302766 160.672944z"  horiz-adv-x="1025" />

    
    <glyph glyph-name="yulan" unicode="&#59092;" d="M941.754 444.112c-1.558 2.378-38.987 58.886-110.359 115.584-41.957 33.33-87.104 59.913-134.188 79.008-59.093 23.966-121.323 36.118-184.963 36.118-63.639 0-125.87-12.152-184.963-36.118-47.084-19.096-92.232-45.678-134.188-79.008-71.373-56.698-108.8-113.206-110.332-115.544-22.554-34.27-20.582-86.544 4.459-118.975 1.823-2.368 45.49-58.68 119.177-115.448 43.469-33.489 88.473-60.218 133.764-79.446 57.29-24.322 115.187-36.654 172.083-36.654 56.897 0 114.793 12.333 172.083 36.654 45.291 19.228 90.294 45.958 133.765 79.446 73.687 56.769 117.354 113.080 119.202 115.482 24.863 32.428 26.833 84.639 4.461 118.9zM896.683 356.43c-0.413-0.535-42.168-54.199-110.92-106.944-62.221-47.733-160.179-104.634-273.518-104.634-113.338 0-211.298 56.9-273.518 104.634-68.752 52.744-110.507 106.407-110.935 106.962-11.706 15.158-12.774 43.54-2.235 59.552 0.346 0.525 35.362 53.059 100.782 104.681 86.544 68.29 182.736 102.917 285.906 102.917s199.362-34.625 285.906-102.915c65.421-51.622 100.436-104.157 100.738-104.614 10.477-16.044 9.406-44.494-2.205-59.64zM511.986 542.331c-41.986 0-81.414-16.468-111.021-46.37-29.529-29.824-45.792-69.49-45.792-111.691 0-42.22 16.26-81.904 45.786-111.744 29.608-29.922 69.037-46.403 111.027-46.403 86.37 0 156.637 70.944 156.637 158.147-0 87.155-70.267 158.061-156.637 158.061zM511.986 277.346c-58.222 0-105.589 47.965-105.589 106.923 0 58.911 47.367 106.838 105.589 106.838 58.126 0 105.415-47.928 105.415-106.838 0-58.958-47.289-106.923-105.415-106.923z"  horiz-adv-x="1024" />

    
    <glyph glyph-name="shoujibangding" unicode="&#59069;" d="M777.855-49.709 236.153-49.709c-39.019 0-70.653 32.044-70.653 71.536L165.5 760.966c0 39.491 31.634 71.535 70.653 71.535l541.702 0c39.02 0 70.646-32.043 70.646-71.535l0-739.138C848.5-17.665 816.874-49.709 777.855-49.709L777.855-49.709zM801.393 737.12c0 26.333-21.092 47.691-47.104 47.691L259.705 784.811c-25.999 0-47.098-21.358-47.098-47.691l0-691.463c0-26.317 21.1-47.689 47.098-47.689l494.583 0c26.013 0 47.104 21.372 47.104 47.689L801.392 737.12 801.393 737.12zM589.43 69.503 424.571 69.503c-13.02 0-23.553 10.657-23.553 23.845s10.533 23.846 23.553 23.846L589.43 117.194c13.02 0 23.553-10.658 23.553-23.846S602.449 69.503 589.43 69.503L589.43 69.503zM589.43 69.503"  horiz-adv-x="1024" />

    
    <glyph glyph-name="bottom" unicode="&#58892;" d="M512 284.989l296.314 296.314 49.385-49.385-345.698-345.698-345.698 345.698 49.385 49.385 296.314-296.314z"  horiz-adv-x="1024" />

    
    <glyph glyph-name="map-marker-o" unicode="&#58913;" d="M772.224 789.904c-66.624 65.552-158.624 106.096-260.224 106.096-101.616 0-193.616-40.544-260.192-106.096-66.592-65.536-107.808-156.080-107.808-256.064 0-53.536 12.528-103.728 34.208-149.248 23.36-49.088 57.264-92.416 97.408-128.304l236.384-211.248 236.24 211.12c40.16 35.888 74.128 79.232 97.52 128.4 21.68 45.52 34.24 95.728 34.24 149.28 0 99.984-41.2 190.528-107.776 256.064zM795.408 407.744c-20.096-42.16-49.568-79.664-84.656-111.008l-198.752-177.616-198.896 177.744c-35.088 31.344-64.512 68.816-84.544 110.912-18.224 38.256-28.768 80.656-28.768 126.080 0 84.832 34.96 161.664 91.456 217.232 56.496 55.6 134.56 89.984 220.752 89.984 86.208 0 164.256-34.384 220.736-90 56.496-55.584 91.456-132.4 91.456-217.232 0-45.44-10.544-87.84-28.784-126.096zM815.344 142.752c-9.808 10.496-26.016 11.904-37.536 3.248-5.664-4.272-9.216-10.224-10.368-17.456-1.344-8.48 1.056-16.336 6.96-22.704 14.112-15.248 21.952-31.68 21.952-48.528 0-32.48-29.12-63.472-76.208-87.264-52.704-26.64-126.272-43.12-208.144-43.12-81.888 0-155.44 16.48-208.128 43.12-47.056 23.792-76.24 54.784-76.24 87.264 0 16.848 7.856 33.28 21.984 48.528 5.872 6.368 8.272 14.224 6.928 22.704-1.12 7.264-4.736 13.248-10.432 17.52-11.552 8.592-27.696 7.168-37.44-3.312-23.584-25.328-36.816-54.32-36.816-85.44 0-54.672 40.784-102.64 106.704-135.952 60.32-30.5 142.928-49.36 233.44-49.36 90.528 0 173.12 18.864 233.424 49.36 65.952 33.312 106.736 81.28 106.736 135.952 0 31.12-13.264 60.112-36.816 85.44v0zM614.208 602.672l0.064 0.048c-26.176 25.744-62.336 41.68-102.272 41.68-39.904 0-76.096-15.936-102.256-41.68l0.032-0.048c-26.192-25.808-42.416-61.392-42.416-100.576 0-39.296 16.208-74.88 42.384-100.64 26.16-25.744 62.336-41.68 102.256-41.68 39.936 0 76.096 15.936 102.272 41.68 26.144 25.76 42.352 61.344 42.352 100.64 0 39.184-16.224 74.768-42.416 100.576zM574.784 440.304c-16.064-15.824-38.256-25.616-62.784-25.616-24.496 0-46.752 9.792-62.816 25.616-16.032 15.792-26 37.664-26 61.792 0 24.208 9.904 46.048 25.904 61.792h0.096c16.064 15.808 38.32 25.616 62.816 25.616 24.528 0 46.72-9.792 62.784-25.616h0.128c16-15.744 25.888-37.6 25.888-61.792-0-24.144-9.92-46-26.016-61.792z"  horiz-adv-x="1024" />

    
    <glyph glyph-name="zhibo" unicode="&#59155;" d="M855.3 578.9l-138.8-80.2L716.5 533c0 53.2-43.2 96.4-96.4 96.4L237.9 629.4c-53.2 0-96.4-43.2-96.4-96.4l0-313c0-53.2 43.2-96.4 96.4-96.4L620 123.6c53.2 0 96.4 43.2 96.4 96.4l0 31.2L855.3 171c24.3-14 54.7 3.5 54.7 31.6L910 547.3C910 575.4 879.6 592.9 855.3 578.9zM680.6 525.8l0-53.3 0-196.2 0-44.1c0-34.2-27.7-61.9-61.9-61.9L242.4 170.3c-34.2 0-61.9 27.7-61.9 61.9L180.5 525.8c0 34.2 27.7 61.9 61.9 61.9l376.3 0C652.8 587.8 680.6 560.1 680.6 525.8L680.6 525.8zM875.2 219.3l-158.8 74.4L716.4 452.4l158.8 76.5 0 0 0 0 0 0L875.2 219.3z"  horiz-adv-x="1024" />

    
    <glyph glyph-name="jiazai" unicode="&#58889;" d="M467 834h67.5v-225h-67.5v225zM806.075 721.725c0 0 43.425-43.425 43.425-43.425s-159.3-159.075-159.3-159.075c0 0-43.2 43.425-43.2 43.425 0 0 159.075 159.075 159.075 159.075zM737 406.5h225v-67.5h-225v67.5zM647 205.35c0 0 43.2 43.425 43.2 43.425s159.3-159.075 159.3-159.075c0 0-43.425-43.425-43.425-43.425 0 0-159.075 159.075-159.075 159.075zM467 159h67.5v-225h-67.5v225zM311.075 248.775c0 0 43.425-43.425 43.425-43.425s-159.075-159.075-159.075-159.075c0 0-43.425 43.425-43.425 43.425 0 0 159.075 159.075 159.075 159.075zM62 406.5h225v-67.5h-225v67.5zM152 678.3c0 0 43.425 43.425 43.425 43.425s159.075-159.075 159.075-159.075c0 0-43.425-43.425-43.425-43.425 0 0-159.075 159.075-159.075 159.075z"  horiz-adv-x="1024" />

    
    <glyph glyph-name="huobi" unicode="&#58901;" d="M589.253 343.909c-12.004 8.625-32.246 16.833-60.692 24.524v-179.391c38.882 1.84 65.699 16.018 80.482 42.654 7.724 13.604 11.615 29.44 11.615 47.361 0.061 28.475-10.467 50.103-31.402 64.854zM432.003 571.807c-12.731-17.043-19.094-34.931-19.094-53.572 0-22.533 7.513-40.119 22.503-52.878 15.053-12.731 35.262-21.599 60.722-26.604v160.327c-30.016-1.146-51.403-10.227-64.131-27.269zM512 776.144c-216.583 0-392.144-175.561-392.144-392.144s175.561-392.144 392.144-392.144c216.583 0 392.144 175.561 392.144 392.144 0 216.583-175.561 392.144-392.144 392.144zM623.067 166.873c-21.869-14.118-53.333-23.406-94.508-27.993v-66.181h-32.428v66.181c-66.153 4.346-111.099 27.722-134.747 70.283-12.941 22.955-19.425 53.996-19.425 93.12h60.359c1.84-31.161 6.757-53.906 14.781-68.233 14.207-25.761 40.572-40.148 79.033-43.347v185.907c-49.35 9.351-85.819 24.916-109.347 46.755s-35.294 52.095-35.294 90.737c0 34.57 12.669 65.729 38.037 93.452 25.369 27.751 60.901 41.868 106.603 42.321v45.366h32.428v-44.675c45.248-3.167 79.997-16.501 104.22-39.969s36.893-54.508 38.068-93.059h-59.696c-1.569 17.283-6.275 32.155-13.965 44.675-14.357 22.987-37.162 35.022-68.563 36.169v-166.117c52.758-14.751 88.594-28.657 107.447-41.597 30.737-21.357 46.062-52.971 46.062-94.839-0.090-60.511-19.788-103.495-59.063-128.956z"  horiz-adv-x="1024" />

    
    <glyph glyph-name="xia-copy" unicode="&#58891;" d="M254.616 769.657l386.084-386.084-386.084-386.085 64.342-64.342 450.427 450.428-450.426 450.426-64.343-64.342zM254.616 769.657z"  horiz-adv-x="1025" />

    
    <glyph glyph-name="back-copy" unicode="&#58897;" d="M329.991 839.111c13.981 0 27.962-5.315 38.629-15.984l400.462-400.462c21.335-21.299 21.335-55.888 0-77.223l-400.462-400.498c-21.335-21.335-55.888-21.335-77.223 0-21.335 21.299-21.335 55.888 0 77.223l361.831 361.868-361.831 361.831c-21.335 21.335-21.335 55.888 0 77.223 10.631 10.704 24.612 16.020 38.593 16.020z"  horiz-adv-x="1024" />

    
    <glyph glyph-name="back-copy-copy" unicode="&#58898;" d="M967.111 566.009c0-13.981-5.315-27.962-15.984-38.629l-400.462-400.462c-21.299-21.335-55.888-21.335-77.223 0l-400.498 400.462c-21.335 21.335-21.335 55.888 0 77.223 21.299 21.335 55.888 21.335 77.223 0l361.868-361.831 361.831 361.831c21.335 21.335 55.888 21.335 77.223 0 10.704-10.631 16.020-24.612 16.020-38.593z"  horiz-adv-x="1024" />

    
    <glyph glyph-name="zuo-copy" unicode="&#58899;" d="M814.009 277.225l-302.009 302.009-302.009-302.009h604.021z"  horiz-adv-x="1024" />

    
    <glyph glyph-name="iconyingbi" unicode="&#58905;" d="M699.073 615.060l-191.91-191.91-191.909 191.91c-8.724 8.73-22.873 8.724-31.603 0-8.724-8.724-8.724-22.873 0-31.598l169.567-169.567h-114.381c-12.339 0-22.343-10.005-22.343-22.345s10.005-22.343 22.343-22.343h146.353v-93.847h-134.063c-12.343 0-22.348-10.004-22.348-22.343s10.005-22.343 22.348-22.343h134.068v-138.539c0-12.339 10.004-22.342 22.343-22.342s22.345 10.004 22.345 22.342v138.54h134.066c12.339 0 22.345 10.005 22.345 22.345s-10.005 22.343-22.345 22.343h-134.067v93.847h146.353c12.339 0 22.343 10.004 22.343 22.343s-10.005 22.345-22.343 22.345h-115.126l169.567 169.567c8.724 8.724 8.724 22.873 0 31.597-8.729 8.729-22.873 8.729-31.602-0.001v0zM507.162 848.489c-259.351 0-470.345-210.993-470.345-470.345s210.993-470.346 470.345-470.346 470.345 210.993 470.345 470.345-210.993 470.346-470.345 470.346v0zM507.162-47.514c-234.71 0-425.658 190.948-425.658 425.658s190.947 425.659 425.658 425.659 425.658-190.948 425.658-425.659-190.948-425.658-425.658-425.658v0zM507.162-47.514z"  horiz-adv-x="1024" />

    
    <glyph glyph-name="talk-copy" unicode="&#58912;" d="M226.895 321.353c107.434-155.453 271.716-234.568 381.788-274.445s290.158-71.723 290.158-71.723v722.855c0 0-170.396-55.714-304.62-67.667-56.222-5.006-131.457-13.832-255.387-3.606-0.887 0.073-1.773 0.147-2.659 0.222-122.933 10.491-237.792 44.294-237.792 44.294 0 0 21.080-194.48 128.512-349.933z"  horiz-adv-x="1103" />

    
    <glyph glyph-name="fenxiang1" unicode="&#58970;" d="M834.559417 379.933381c-12.96529 0-23.475667-10.513448-23.475667-23.477714l0-221.939765c0-28.479635-23.170722-51.650357-51.650357-51.650357L264.045745 82.865545c-28.480658 0-51.647287 23.170722-51.647287 51.650357L212.398458 600.556151c0 28.479635 23.166629 51.644217 51.647287 51.644217l161.473625 0c12.96222 0 23.471574 10.514471 23.471574 23.482831 0 12.961196-10.509355 23.474644-23.471574 23.474644L264.045745 699.157843c-54.366212 0-98.600669-44.231387-98.600669-98.600669l0-466.040249c0-54.370305 44.234457-98.600669 98.600669-98.600669l495.387647 0c54.373375 0 98.600669 44.231387 98.600669 98.600669L858.034061 356.454644C858.034061 369.419933 847.527776 379.933381 834.559417 379.933381L834.559417 379.933381 834.559417 379.933381zM341.910137 242.366236c-2.333138-12.755512 6.113231-24.988114 18.865673-27.321252 1.428535-0.264013 2.850931-0.388856 4.254907-0.388856 11.114129 0 20.989033 7.92653 23.065322 19.250436 0.179079 0.986467 18.804275 99.722212 83.633792 197.880813 37.722136 57.121975 83.436294 102.544491 135.867434 135.009903 50.046836 30.989805 106.61111 50.279127 168.731936 57.635675l-76.428693-78.850859c-9.024537-9.31004-8.791224-24.173562 0.51984-33.197076 4.555759-4.417613 10.44591-6.619768 16.331967-6.619768 6.133697 0 12.259208 2.387373 16.85897 7.139607l118.322849 122.075313c0.088004 0.088004 0.165776 0.182149 0.252757 0.277316 0.121773 0.124843 0.240477 0.25378 0.358157 0.384763 0.128937 0.14224 0.25685 0.290619 0.385786 0.438998 0.016373 0.019443 0.033769 0.044002 0.053212 0.060375 0.11461 0.145309 0.233314 0.283456 0.347924 0.425695 0.125867 0.152473 0.252757 0.311085 0.36839 0.469698 0.11461 0.145309 0.223081 0.293689 0.337691 0.442068 0.127913 0.179079 0.25685 0.361227 0.384763 0.540306 0.081864 0.121773 0.165776 0.246617 0.246617 0.36839 0.080841 0.12075 0.165776 0.242524 0.240477 0.36839 0.026606 0.039909 0.053212 0.086981 0.086981 0.135076 0.017396 0.030699 0.036839 0.067538 0.058328 0.101307 0.074701 0.118704 0.145309 0.239454 0.220011 0.358157 0.11768 0.212848 0.239454 0.418532 0.358157 0.62524 0.067538 0.12075 0.127913 0.239454 0.192382 0.358157 0.024559 0.044002 0.048095 0.091074 0.070608 0.135076 0.084934 0.168846 0.176009 0.341784 0.25992 0.509606 0.067538 0.14224 0.135076 0.286526 0.202615 0.428765 0.095167 0.198521 0.182149 0.391926 0.270153 0.594541 0.070608 0.158612 0.130983 0.320295 0.198521 0.48607 0.077771 0.186242 0.148379 0.36839 0.220011 0.550539 0.067538 0.186242 0.1361 0.36839 0.199545 0.553609 0.057305 0.169869 0.11461 0.337691 0.168846 0.503467 0.067538 0.203638 0.128937 0.409322 0.189312 0.610914 0.044002 0.162706 0.086981 0.318248 0.130983 0.479931 0.060375 0.208754 0.11461 0.425695 0.162706 0.641613 0.030699 0.128937 0.064468 0.25685 0.094144 0.388856 0.010233 0.035816 0.014326 0.076748 0.023536 0.110517 0.044002 0.203638 0.084934 0.409322 0.124843 0.615007 0.019443 0.118704 0.044002 0.237407 0.067538 0.355087 0.013303 0.094144 0.026606 0.181125 0.044002 0.276293 0.023536 0.161682 0.044002 0.320295 0.070608 0.481977 0.013303 0.105401 0.029676 0.213871 0.044002 0.318248 0.019443 0.154519 0.036839 0.299829 0.053212 0.455371 0.010233 0.088004 0.017396 0.179079 0.023536 0.264013 0.010233 0.080841 0.017396 0.154519 0.024559 0.236384 0.00307 0.047072 0.007163 0.092098 0.013303 0.135076 0.013303 0.206708 0.027629 0.409322 0.040932 0.615007 0 0.030699 0 0.064468 0.00307 0.095167 0.00307 0.124843 0.010233 0.249687 0.013303 0.37453 0 0 0 0.010233 0.00307 0.014326 0.007163 0.249687 0.010233 0.496304 0.010233 0.750083l0 0.007163 0 0.016373c0 0.388856-0.010233 0.766456-0.027629 1.151219-0.00307 0.033769-0.00307 0.064468-0.00921 0.095167-0.00307 0.074701-0.00307 0.145309-0.007163 0.212848l0 0.016373c-0.017396 0.274246-0.040932 0.538259-0.067538 0.804319-0.010233 0.077771-0.020466 0.158612-0.027629 0.236384l0 0.00307c-0.00614 0.040932-0.00614 0.081864-0.00921 0.121773-0.030699 0.242524-0.061398 0.483001-0.098237 0.726547-0.013303 0.104377-0.026606 0.208754-0.042979 0.314155-0.007163 0.044002-0.014326 0.084934-0.024559 0.128937-0.030699 0.205685-0.070608 0.408299-0.10847 0.610914-0.026606 0.130983-0.053212 0.26606-0.080841 0.398066 0 0.019443-0.00614 0.039909-0.013303 0.057305-0.007163 0.044002-0.017396 0.084934-0.024559 0.124843-0.033769 0.151449-0.070608 0.299829-0.104377 0.449231-0.057305 0.246617-0.12075 0.493234-0.188288 0.73985-0.027629 0.094144-0.054235 0.188288-0.080841 0.280386-0.080841 0.286526-0.168846 0.574075-0.264013 0.857531-0.016373 0.053212-0.036839 0.10847-0.053212 0.161682-0.067538 0.199545-0.128937 0.402159-0.206708 0.604774-0.00614 0.019443-0.016373 0.042979-0.026606 0.067538-0.030699 0.086981-0.067538 0.171915-0.101307 0.25685-0.010233 0.033769-0.023536 0.060375-0.036839 0.091074-0.080841 0.208754-0.161682 0.421602-0.246617 0.62831-0.051165 0.11461-0.10847 0.232291-0.158612 0.347924-0.00307 0.010233-0.007163 0.019443-0.007163 0.019443-0.097214 0.220011-0.188288 0.429789-0.289596 0.638543 0 0-0.007163 0.00921-0.007163 0.013303-0.220011 0.459464-0.459464 0.905626-0.710175 1.351787l0 0.00307c-0.182149 0.317225-0.370437 0.63138-0.563842 0.945535-0.019443 0.030699-0.044002 0.064468-0.060375 0.094144-0.11154 0.176009-0.223081 0.354064-0.341784 0.527003l-0.023536 0.033769c-0.058328 0.084934-0.11461 0.169869-0.179079 0.25992-0.060375 0.088004-0.130983 0.182149-0.199545 0.276293-0.050142 0.068562-0.101307 0.13917-0.148379 0.206708-0.051165 0.067538-0.095167 0.135076-0.145309 0.195451-0.047072 0.067538-0.098237 0.1361-0.152473 0.203638-0.118704 0.161682-0.249687 0.317225-0.375553 0.475837-0.067538 0.080841-0.130983 0.158612-0.198521 0.240477-0.033769 0.050142-0.074701 0.094144-0.10847 0.145309-0.162706 0.182149-0.327458 0.36839-0.490164 0.549515-0.042979 0.051165-0.083911 0.098237-0.130983 0.145309-0.223081 0.25071-0.455371 0.490164-0.692778 0.729617-0.019443 0.020466-0.040932 0.040932-0.063445 0.061398-0.249687 0.252757-0.506537 0.499373-0.77055 0.738827-0.013303 0.010233-0.023536 0.017396-0.030699 0.026606-0.26913 0.242524-0.537236 0.476861-0.816598 0.703011-0.014326 0.013303-0.030699 0.026606-0.044002 0.040932-0.264013 0.215918-0.533143 0.428765-0.807389 0.63138-0.036839 0.026606-0.070608 0.060375-0.110517 0.088004-0.24764 0.182149-0.497327 0.358157-0.754177 0.530073-0.070608 0.053212-0.144286 0.104377-0.218988 0.155543-0.125867 0.083911-0.25071 0.168846-0.381693 0.249687-0.097214 0.067538-0.202615 0.124843-0.303922 0.188288-0.11461 0.070608-0.230244 0.14224-0.344854 0.209778-0.104377 0.060375-0.202615 0.124843-0.303922 0.185218-0.11461 0.061398-0.226151 0.118704-0.337691 0.182149-0.135076 0.074701-0.273223 0.148379-0.409322 0.220011-0.195451 0.10847-0.391926 0.206708-0.590448 0.303922-0.152473 0.077771-0.303922 0.145309-0.456395 0.215918-0.188288 0.086981-0.3776 0.176009-0.563842 0.25378-0.171915 0.077771-0.347924 0.148379-0.520863 0.215918-0.168846 0.070608-0.343831 0.145309-0.51984 0.205685-0.192382 0.077771-0.384763 0.14224-0.584308 0.212848-0.155543 0.058328-0.317225 0.11154-0.472767 0.158612-0.104377 0.036839-0.202615 0.067538-0.306992 0.098237l-172.325787 57.132208c-12.30935 4.082992-25.594935-2.589988-29.671787-14.893198-4.079922-12.310374 2.589988-25.592888 14.894222-29.67281l69.310575-22.978341c-50.945299-11.009751-98.219999-29.928636-141.339052-56.621579-58.253752-36.075637-108.833731-86.22071-150.32982-149.052734C362.493941 351.591893 342.717526 246.777709 341.910137 242.366236L341.910137 242.366236 341.910137 242.366236zM341.910137 242.366236"  horiz-adv-x="1024" />

    
    <glyph glyph-name="mimaxiugai" unicode="&#58930;" d="M868.015 429.488333 243.425 429.488333l0 119.658333c0 148.75 121.05 269.766667 269.841667 269.766667 148.783333 0 269.816667-121.016667 269.816667-269.766667 0-18.3 14.883333-33.183333 33.183333-33.183333s33.183333 14.883333 33.183333 33.183333c0 185.345-150.816667 336.136667-336.181667 336.136667-185.383333 0-336.206667-150.791667-336.206667-336.136667l0-119.658333L156 429.488333c-46.683333 0-84.666667-38-84.666667-84.703333l0-377.456667c0-46.658333 37.983333-84.608333 84.666667-84.608333l712.015 0c46.683333 0 84.65 37.95 84.65 84.608333L952.665 344.785C952.665 391.488333 914.698333 429.488333 868.015 429.488333zM886.298333-32.681667c0-10.05-8.2-18.233333-18.283333-18.233333L156-50.915c-10.091667 0-18.3 8.183333-18.3 18.233333L137.7 344.785c0 10.116667 8.208333 18.333333 18.3 18.333333l712.015 0c10.083333 0 18.283333-8.216667 18.283333-18.333333L886.298333-32.681667zM512.798333 267.451667c-30.95 0-56.133333-25.183333-56.133333-56.15 0-19.883333 10.35-37.866667 27.333333-48l0-87.633333c0-15.9 12.916667-28.85 28.8-28.85 15.9 0 28.816667 12.95 28.816667 28.85l0 87.633333c17 10.116667 27.35 28.1 27.35 48C568.965 242.268333 543.765 267.451667 512.798333 267.451667z"  horiz-adv-x="1024" />

    
    <glyph glyph-name="gerenziliao" unicode="&#58951;" d="M192 128l640 0 0 64L192 192 192 128zM320 384c70.406 0 128 57.594 128 128s-57.594 128-128 128-128-57.594-128-128S249.594 384 320 384zM320 576c38.406 0 64-25.594 64-64s-25.594-64-64-64-64 25.594-64 64S281.594 576 320 576zM576 384l256 0 0 64L576 448 576 384zM448 256l384 0 0 64L448 320 448 256zM896 768 128 768C57.594 768 0 710.406 0 640l0-512c0-70.375 57.594-128 128-128l768 0c70.375 0 128 57.625 128 128L1024 640C1024 710.406 966.375 768 896 768zM960 128c0-32-25.625-64-64-64L128 64c-38.406 0-64 32-64 64L64 640c0 32 25.594 64 64 64l768 0c38.375 0 64-32 64-64L960 128z"  horiz-adv-x="1024" />

    
    <glyph glyph-name="shouye" unicode="&#59160;" d="M577.400141 91.686662m-28.183486 0a3.9 3.9 0 1 0 56.366972 0 3.9 3.9 0 1 0-56.366972 0ZM578.122795-19.601976m-28.183486 0a3.9 3.9 0 1 0 56.366972 0 3.9 3.9 0 1 0-56.366972 0ZM691.579393-23.215243m-28.183486 0a3.9 3.9 0 1 0 56.366972 0 3.9 3.9 0 1 0-56.366972 0ZM845.504587 518.052223c0 0-0.722653 0.722653-0.722653 0.722653L576.677488 794.105857c-18.066337 18.066337-42.636556 27.460833-67.929428 26.015526-0.722653 0-1.445307 0-2.16796 0-0.722653 0-1.445307 0-2.16796 0-25.292872 1.445307-49.863091-8.671842-67.929428-26.738179L169.100917 518.774876c0 0-0.722653-0.722653-0.722653-0.722653-27.460833-31.0741-28.183486-74.43331-28.183486-79.491884l0-403.963303c0-44.804517 36.132675-81.659845 81.659845-81.659845l218.964008 0c13.730416 0 25.292872 11.562456 25.292872 25.292872L466.111503 191.412844l39.023289 0c0.722653 0 1.445307 0 2.16796 0 0.722653 0 1.445307 0 2.16796 0l41.913903 0c13.730416 0 25.292872 11.562456 25.292872 25.292872s-11.562456 25.292872-25.292872 25.292872l-41.913903 0c-0.722653 0-1.445307 0-2.16796 0-0.722653 0-1.445307 0-2.16796 0L462.498236 241.998589c-26.015526 0-46.972477-20.956951-46.972477-46.972477l0-190.780522L221.131969 4.245589c-16.62103 0-31.0741 13.730416-31.0741 31.0741L190.057869 438.560339c0 0 0.722653 28.183486 15.175723 45.52717l267.381793 274.608327c7.949188 7.949188 18.066337 12.285109 29.628793 11.562456 1.445307 0 2.890614 0 4.335921 0 1.445307 0 2.890614 0 4.335921 0 10.839802 0.722653 21.679605-3.613267 28.90614-11.562456l267.381793-274.608327c12.285109-14.45307 15.175723-37.577982 15.175723-45.52717l0-403.963303c0-16.62103-13.730416-31.0741-31.0741-31.0741-13.730416 0-25.292872-11.562456-25.292872-25.292872s11.562456-25.292872 25.292872-25.292872c44.804517 0 81.659845 36.855328 81.659845 81.659845L872.96542 438.560339C873.688073 443.618913 872.96542 486.978123 845.504587 518.052223z"  horiz-adv-x="1024" />

    
    <glyph glyph-name="diannao" unicode="&#59162;" d="M603.415667 447.232181m-27.460833 0a27.460833 27.460833 0 1 1 54.921666 0 27.460833 27.460833 0 1 1-54.921666 0ZM507.302752 447.232181m-27.460832 0a27.460833 27.460833 0 1 1 54.921665 0 27.460833 27.460833 0 1 1-54.921665 0ZM411.189838 447.232181m-27.460833 0a27.460833 27.460833 0 1 1 54.921665 0 27.460833 27.460833 0 1 1-54.921665 0ZM846.949894 760.863797H166.932957c-36.855328 0-66.484121-29.628793-66.484121-66.484122v-495.017643c0-36.855328 29.628793-66.484121 66.484121-66.484121h314.35427v-62.1482h-224.022583c-13.730416 0-25.292872-11.562456-25.292873-25.292873s11.562456-25.292872 25.292873-25.292872h499.353563c13.730416 0 25.292872 11.562456 25.292873 25.292872s-11.562456 25.292872-25.292873 25.292873h-224.022582v62.1482h314.354269c36.855328 0 66.484121 29.628793 66.484122 66.484121V694.379675c0 36.855328-29.628793 66.484121-66.484122 66.484122z m15.898377-560.779111c0-8.671842-7.226535-15.898377-15.898377-15.898377H166.932957c-8.671842 0-15.898377 7.226535-15.898377 15.898377V694.379675c0 8.671842 7.226535 15.898377 15.898377 15.898377h680.016937c8.671842 0 15.898377-7.226535 15.898377-15.898377v-494.294989z"  horiz-adv-x="1024" />

    
    <glyph glyph-name="erweima" unicode="&#59163;" d="M444.431898 716.05928H203.065632c-23.124912 0-42.636556-18.788991-42.636556-42.636556v-241.366267c0-23.124912 18.788991-42.636556 42.636556-42.636556h241.366266c23.124912 0 42.636556 18.788991 42.636556 42.636556V673.422724c0 23.847565-19.511644 42.636556-42.636556 42.636556zM436.48271 440.728299H211.737474V665.473536h224.745236V440.728299zM444.431898 338.111503H203.065632c-23.124912 0-42.636556-18.788991-42.636556-42.636556v-241.366267c0-23.124912 18.788991-42.636556 42.636556-42.636556h241.366266c23.124912 0 42.636556 18.788991 42.636556 42.636556V295.474947c0 23.847565-19.511644 42.636556-42.636556 42.636556z m-7.949188-275.330981H211.737474V287.525759h224.745236v-224.745237zM849.840508 494.927311c-13.730416 0-25.292872-11.562456-25.292872-25.292872v-28.90614H599.802399V665.473536h28.183487c13.730416 0 25.292872 11.562456 25.292872 25.292872s-11.562456 25.292872-25.292872 25.292872h-36.855328c-23.124912 0-42.636556-18.788991-42.636557-42.636556v-241.366267c0-23.124912 18.788991-42.636556 42.636557-42.636556h241.366266c23.124912 0 42.636556 18.788991 42.636556 42.636556V469.634439c0 13.730416-11.562456 25.292872-25.292872 25.292872zM851.285815 570.805928m-28.183486 0a28.183486 28.183486 0 1 1 56.366972 0 28.183486 28.183486 0 1 1-56.366972 0ZM850.563162 682.094566m-28.183487 0a28.183486 28.183486 0 1 1 56.366973 0 28.183486 28.183486 0 1 1-56.366973 0ZM737.106563 685.707833m-28.183486 0a28.183486 28.183486 0 1 1 56.366972 0 28.183486 28.183486 0 1 1-56.366972 0ZM847.672548 338.111503H575.954834c-13.730416 0-25.292872-11.562456-25.292872-25.292872s11.562456-25.292872 25.292872-25.292872h246.424841V144.440367c0-13.730416 11.562456-25.292872 25.292873-25.292872s25.292872 11.562456 25.292872 25.292872V312.818631c0 13.730416-11.562456 25.292872-25.292872 25.292872zM847.672548 65.671136H601.247706V214.537756c0 13.730416-11.562456 25.292872-25.292872 25.292872s-25.292872-11.562456-25.292872-25.292872v-174.882146c0-13.730416 11.562456-25.292872 25.292872-25.292872h271.717714c13.730416 0 25.292872 11.562456 25.292872 25.292872s-11.562456 26.015526-25.292872 26.015526zM744.333098 120.592802c13.730416 0 25.292872 11.562456 25.292872 25.292872v57.812279c0 13.730416-11.562456 25.292872-25.292872 25.292873s-25.292872-11.562456-25.292872-25.292873v-32.519407h-36.855328c-13.730416 0-25.292872-11.562456-25.292873-25.292872s11.562456-25.292872 25.292873-25.292872h62.1482z"  horiz-adv-x="1024" />

    
    <glyph glyph-name="fenxiang" unicode="&#59164;" d="M738.55187 155.280169c-26.015526 0-49.863091-10.117149-67.929428-26.015525L400.350035 325.10374c5.781228 13.730416 8.671842 28.183486 8.671842 43.35921 0 62.1482-50.585745 113.456598-113.456598 113.456598s-113.456598-50.585745-113.456599-113.456598 50.585745-113.456598 113.456599-113.456599c28.90614 0 54.921665 10.839802 75.155963 28.183487L641.716302 86.628088c-4.335921-10.839802-6.503881-23.124912-6.503881-35.410022 0-57.089626 46.249824-103.33945 103.339449-103.339449s103.33945 46.249824 103.33945 103.339449c0 57.812279-46.249824 104.062103-103.33945 104.062103zM296.287932 306.314749c-34.687368 0-62.870854 28.183486-62.870854 62.870854s28.183486 62.870854 62.870854 62.870854c34.687368 0 62.870854-28.183486 62.870854-62.870854s-28.90614-62.870854-62.870854-62.870854z m442.263938-307.127734c-28.90614 0-52.753705 23.847565-52.753705 52.753705s23.847565 52.753705 52.753705 52.753705 52.753705-23.847565 52.753705-52.753705-23.847565-52.753705-52.753705-52.753705zM738.55187 612.719831c57.089626 0 103.33945 46.249824 103.33945 103.339449s-46.249824 103.33945-103.33945 103.33945S635.212421 773.148906 635.212421 716.05928s46.249824-103.33945 103.339449-103.339449z m0 155.370501c28.90614 0 52.753705-23.847565 52.753705-52.753705s-23.847565-52.753705-52.753705-52.753705-52.753705 23.847565-52.753705 52.753705 23.847565 52.753705 52.753705 52.753705zM446.599859 486.255469m-27.460833 0a27.460833 27.460833 0 1 1 54.921666 0 27.460833 27.460833 0 1 1-54.921666 0ZM518.865208 543.345095m-27.460833 0a27.460833 27.460833 0 1 1 54.921666 0 27.460833 27.460833 0 1 1-54.921666 0ZM590.407904 601.157375m-27.460833 0a27.460833 27.460833 0 1 1 54.921666 0 27.460833 27.460833 0 1 1-54.921666 0Z"  horiz-adv-x="1024" />

    
    <glyph glyph-name="jilu" unicode="&#59165;" d="M529.705011 350.396613m-27.460833 0a27.460833 27.460833 0 1 1 54.921665 0 27.460833 27.460833 0 1 1-54.921665 0ZM433.592096 350.396613m-27.460833 0a27.460833 27.460833 0 1 1 54.921666 0 27.460833 27.460833 0 1 1-54.921666 0ZM337.479181 350.396613m-27.460832 0a27.460833 27.460833 0 1 1 54.921665 0 27.460833 27.460833 0 1 1-54.921665 0ZM806.481299 764.477064H227.63585c-25.292872 0-45.52717-20.234298-45.52717-45.52717v-671.345095c0-25.292872 20.234298-45.52717 45.52717-45.52717h578.845449c25.292872 0 45.52717 20.234298 45.52717 45.52717V718.227241c0.722653 25.292872-20.234298 46.249824-45.52717 46.249823z m-4.335921-712.536344H232.694425V713.89132H802.145378v-661.9506zM333.865914 594.653493H700.973888c13.730416 0 25.292872 11.562456 25.292873 25.292873s-11.562456 25.292872-25.292873 25.292872H333.865914c-13.730416 0-25.292872-11.562456-25.292872-25.292872s10.839802-25.292872 25.292872-25.292873zM333.865914 457.34933H700.973888c13.730416 0 25.292872 11.562456 25.292873 25.292872s-11.562456 25.292872-25.292873 25.292872H333.865914c-13.730416 0-25.292872-11.562456-25.292872-25.292872s10.839802-25.292872 25.292872-25.292872z"  horiz-adv-x="1024" />

    
    <glyph glyph-name="hongbao" unicode="&#59166;" d="M403.963303 295.474947c-13.730416 0-25.292872-11.562456-25.292873-25.292872s11.562456-25.292872 25.292873-25.292872H491.404375v-67.206775c0-13.730416 11.562456-25.292872 25.292873-25.292873s25.292872 11.562456 25.292872 25.292873v67.206775h87.441073c13.730416 0 25.292872 11.562456 25.292872 25.292872s-11.562456 25.292872-25.292872 25.292872H541.99012v59.98024h87.441073c13.730416 0 25.292872 11.562456 25.292872 25.292872s-11.562456 25.292872-25.292872 25.292873h-30.351447l15.175723 33.964714c5.781228 13.007763 0 27.460833-13.007763 33.24206-13.007763 5.781228-27.460833 0-33.24206-13.007762l-23.847566-54.199012h-43.359209L476.951306 460.239944c-5.781228 13.007763-20.234298 18.788991-33.242061 13.007762-13.007763-5.781228-18.788991-20.234298-13.007763-33.24206l15.175723-33.964714h-40.468595c-13.730416 0-25.292872-11.562456-25.292873-25.292873s11.562456-25.292872 25.292873-25.292872H491.404375v-59.98024H403.963303zM222.577276 56.999294c0-54.921665 44.804517-99.726182 99.726182-99.726182h389.510233c54.921665 0 99.726182 44.804517 99.726182 99.726182V711.723359c0 54.921665-44.804517 99.726182-99.726182 99.726182H322.303458c-54.921665 0-99.726182-44.804517-99.726182-99.003528l-0.722654-36.855328v-1.445307l0.722654-58.534933v-558.611151z m489.236415 703.864503c4.335921 0 8.671842-0.722653 12.285109-1.445307-13.730416-17.343684-28.90614-32.519407-46.249823-46.249824-10.839802-8.671842-13.007763-24.570219-4.335921-35.410021 5.058574-6.503881 12.285109-9.394495 20.234298-9.394495 5.781228 0 10.839802 1.445307 15.898376 5.781228 18.788991 14.45307 35.410021 31.0741 50.585745 49.140437 0.722653-3.613267 1.445307-7.226535 1.445307-10.839802V57.721948c0-26.738179-21.679605-49.140438-49.140438-49.140438h-390.232886c-26.738179 0-49.140438 21.679605-49.140438 49.140438V617.055752l-0.722653 58.534933 0.722653 31.0741c10.839802-11.562456 23.124912-22.402258 35.410022-32.519407 4.335921-3.613267 10.117149-5.781228 15.898376-5.781228 7.226535 0 15.175723 3.613267 20.234298 9.394495 8.671842 10.839802 6.503881 26.738179-4.335921 35.410021-15.175723 12.285109-29.628793 26.015526-41.913902 41.191249 7.226535 4.335921 15.898377 6.503881 24.570219 6.503882h388.787579zM420.584333 637.290049m-27.460833 0a27.460833 27.460833 0 1 1 54.921666 0 27.460833 27.460833 0 1 1-54.921666 0ZM516.697248 619.223712m-27.460833 0a27.460833 27.460833 0 1 1 54.921665 0 27.460833 27.460833 0 1 1-54.921665 0ZM612.810162 637.290049m-27.460832 0a27.460833 27.460833 0 1 1 54.921665 0 27.460833 27.460833 0 1 1-54.921665 0Z"  horiz-adv-x="1024" />

    
    <glyph glyph-name="qun1" unicode="&#59167;" d="M434.314749 421.216655c0 79.491884-65.038814 144.530699-144.530698 144.530699s-144.530699-65.038814-144.530699-144.530699c0-37.577982 14.45307-71.542696 37.577982-96.835568-70.097389-43.35921-116.347212-118.515173-122.128441-201.620325-0.722653-13.730416 9.394495-26.015526 23.847566-26.738179h1.445307c13.007763 0 24.570219 10.117149 25.292872 23.847565 5.058574 73.710656 49.140438 139.472124 115.624559 171.991532 18.788991-9.394495 39.745942-14.45307 62.1482-14.45307 80.214538-0.722653 145.253352 64.316161 145.253352 143.808045z m-144.530698-93.944954c-52.031052 0-93.944954 41.913903-93.944954 93.944954s41.913903 93.944954 93.944954 93.944954 93.944954-41.913903 93.944954-93.944954-41.913903-93.944954-93.944954-93.944954zM815.875794 510.825688c0 99.726182-80.937191 180.663373-180.663373 180.663373s-180.663373-80.937191-180.663374-180.663373c0-64.316161 33.964714-120.683133 84.550459-152.479887-115.624559-34.687368-208.124206-130.800282-233.417078-253.651376-2.890614-13.730416 5.781228-26.738179 19.511644-29.628793 1.445307-0.722653 3.613267-0.722653 5.058574-0.722654 11.562456 0 22.402258 7.949188 24.570219 20.234298 27.460833 131.522936 145.253352 227.63585 280.389556 227.63585 41.913903 0 82.382498-8.671842 119.960479-26.015525 13.007763-5.781228 27.460833 0 33.242061 12.285109 5.781228 13.007763 0 27.460833-12.285109 33.242061-14.45307 6.503881-29.628793 12.285109-44.804517 16.62103 50.585745 31.796754 84.550459 88.163726 84.550459 152.479887z m-180.663373-130.077629c-71.542696 0-130.077629 58.534933-130.077629 130.077629s58.534933 130.077629 130.077629 130.077629 130.077629-58.534933 130.077628-130.077629-58.534933-130.077629-130.077628-130.077629zM859.957657 265.1235m-27.460833 0a27.460833 27.460833 0 1 1 54.921666 0 27.460833 27.460833 0 1 1-54.921666 0ZM920.66055 186.35427m-27.460832 0a27.460833 27.460833 0 1 1 54.921665 0 27.460833 27.460833 0 1 1-54.921665 0ZM944.508116 97.46789m-27.460833 0a27.460833 27.460833 0 1 1 54.921665 0 27.460833 27.460833 0 1 1-54.921665 0Z"  horiz-adv-x="1024" />

    
    <glyph glyph-name="shezhi" unicode="&#59168;" d="M220.409315 547.681016c-2.890614-4.335921-5.781228-8.671842-9.394495-12.285109-5.781228-5.781228-13.007763-10.839802-23.124912-15.175724-2.890614-1.445307-5.781228-2.890614-8.671842-3.613267-7.226535-2.890614-15.175723-6.503881-23.124911-11.562456-13.730416-8.671842-24.570219-20.234298-30.351447-33.964714l-2.167961-6.503881c-5.781228-26.738179-8.671842-54.199012-8.671842-81.659845 0-27.460833 2.890614-54.921665 8.671842-81.659845l2.167961-6.503881c5.781228-13.730416 15.898377-25.292872 30.351447-33.964715 7.949188-5.058574 15.898377-8.671842 23.124911-11.562455 2.890614-1.445307 6.503881-2.890614 9.394496-4.335921 10.839802-5.058574 18.066337-10.117149 23.847565-15.898377 4.335921-5.058574 8.671842-12.285109 12.285109-19.511645 2.890614-5.058574 4.335921-9.394495 5.781228-14.453069 2.16796-7.949188 2.890614-16.62103 1.445307-28.183487 0-2.890614-0.722653-6.503881-0.722653-9.394495-0.722653-7.949188-2.16796-16.62103-1.445307-25.292872 0-16.62103 5.058574-31.796754 14.45307-43.35921 0.722653-0.722653 0.722653-1.445307 1.445307-2.16796 0.722653-0.722653 1.445307-2.16796 2.890614-2.890614 41.191249-36.855328 88.88638-64.316161 141.640084-81.659845 2.16796-0.722653 3.613267-0.722653 5.781228-1.445307 15.175723-2.16796 31.0741 0.722653 45.52717 8.671842 7.949188 4.335921 15.175723 9.394495 21.679605 14.45307 2.890614 2.16796 5.058574 4.335921 7.949189 5.781228 9.394495 6.503881 18.066337 10.839802 26.015525 12.285109 7.226535 1.445307 15.175723 1.445307 23.124912 1.445307 5.058574 0 10.839802-0.722653 15.175724-2.167961 7.949188-2.16796 15.898377-5.781228 24.570218-12.285109 2.890614-1.445307 5.058574-3.613267 7.949189-5.781228 6.503881-5.058574 13.007763-10.117149 20.956951-14.45307 11.562456-6.503881 23.847565-9.394495 36.132675-9.394495 2.890614 0 5.781228 0 8.671842 0.722653h0.722653c2.16796 0 3.613267 0.722653 5.781228 1.445307 52.753705 17.343684 99.726182 44.804517 141.640085 81.659845l2.890614 2.890614c10.117149 12.285109 15.898377 28.183486 15.898377 44.804517 0 9.394495-0.722653 18.066337-1.445307 26.015525-0.722653 3.613267-0.722653 6.503881-0.722654 10.117149-0.722653 11.562456 0 20.956951 2.167961 28.90614 2.16796 6.503881 6.503881 14.45307 10.117148 20.956951 2.890614 4.335921 5.781228 8.671842 9.394496 12.28511 5.781228 5.781228 13.007763 10.839802 23.124912 15.175723 2.890614 1.445307 5.781228 2.890614 8.671842 3.613268 7.226535 2.890614 15.175723 6.503881 23.124911 11.562455 13.730416 8.671842 24.570219 20.234298 30.351447 34.687368l2.167961 6.503882c5.781228 26.738179 8.671842 54.199012 8.671841 81.659844 0 27.460833-2.890614 54.921665-8.671841 81.659845l-2.167961 6.503881c-5.781228 13.730416-15.898377 25.292872-30.351447 33.964715-7.949188 5.058574-15.898377 8.671842-23.124911 11.562456-2.890614 1.445307-6.503881 2.890614-9.394496 4.33592-10.117149 5.058574-18.066337 10.117149-23.847565 15.898377-5.058574 5.058574-9.394495 12.285109-13.007763 19.511645-2.890614 5.058574-4.335921 9.394495-5.781228 14.45307-2.16796 7.949188-2.890614 16.62103-1.445307 28.183486 0 2.890614 0.722653 6.503881 0.722654 9.394495 0.722653 7.949188 2.16796 16.62103 1.445307 25.292872 0 16.62103-5.058574 31.796754-14.45307 43.35921-0.722653 0.722653-0.722653 1.445307-1.445307 2.167961-0.722653 0.722653-1.445307 2.16796-2.890614 2.890613-41.191249 36.855328-88.88638 64.316161-141.640085 81.659845-2.16796 0.722653-3.613267 0.722653-5.781228 1.445307-15.175723 2.16796-31.0741-0.722653-45.52717-8.671842-7.949188-4.335921-15.175723-9.394495-21.679605-14.45307-2.890614-2.16796-5.058574-4.335921-7.949188-5.781228-9.394495-6.503881-18.066337-10.839802-26.015526-12.285109-7.226535-1.445307-15.175723-1.445307-23.124912-1.445307-5.058574 0-10.839802 0.722653-15.175723 2.167961-7.949188 2.16796-15.898377 5.781228-25.292872 12.285109-2.890614 1.445307-5.058574 3.613267-7.949189 5.781228-6.503881 5.058574-13.007763 10.117149-20.956951 14.45307-14.45307 7.949188-30.351447 10.839802-45.52717 9.394495h-0.722654c-2.16796 0-3.613267-0.722653-5.781228-1.445307-52.753705-17.343684-99.726182-44.804517-141.640084-81.659845l-2.890614-2.890613c-10.117149-12.285109-15.898377-28.183486-15.898377-44.804517 0-9.394495 0.722653-18.066337 1.445307-26.015526 0.722653-3.613267 0.722653-6.503881 0.722653-10.117149 0.722653-11.562456 0-20.956951-2.16796-28.906139 0-8.671842-4.335921-15.898377-7.949189-22.402259z m26.015526-48.417784c6.503881 6.503881 12.285109 13.730416 17.343684 22.402258 5.058574 9.394495 11.562456 19.511644 15.175723 31.796754 4.335921 13.730416 5.781228 29.628793 4.335921 47.695131 0 3.613267-0.722653 7.949188-1.445307 11.562456-0.722653 6.503881-1.445307 13.007763-1.445307 18.78899 0 5.058574 1.445307 9.394495 3.613268 13.007763 34.687368 31.0741 75.155963 54.199012 119.237826 68.652082 4.335921 0.722653 8.671842-0.722653 13.730417-3.613267s10.117149-6.503881 15.898376-10.839803l8.671842-6.503881c14.45307-10.117149 27.460833-15.898377 40.468596-19.511644 8.671842-2.16796 18.066337-3.613267 28.183486-3.613268 10.839802 0 23.124912 0 35.410021 2.890614 14.45307 3.613267 28.183486 10.117149 43.35921 20.234298 2.890614 2.16796 6.503881 4.335921 9.394495 7.226535 5.781228 4.335921 10.839802 7.949188 15.898377 10.839802 5.058574 2.890614 9.394495 3.613267 13.730417 3.613268 44.081863-15.175723 84.550459-38.300635 119.237826-69.374736 2.16796-3.613267 3.613267-7.949188 3.613268-13.007763 0-5.781228-0.722653-12.285109-1.445307-18.78899-0.722653-3.613267-0.722653-7.226535-1.445307-10.839803-1.445307-17.343684-0.722653-31.796754 2.890614-45.52717 2.16796-8.671842 5.781228-17.343684 10.839802-26.015526 5.058574-9.394495 11.562456-19.511644 20.234298-28.906139 10.117149-10.839802 23.124912-19.511644 39.023288-27.460833 3.613267-1.445307 7.226535-2.890614 10.839803-5.058575 6.503881-2.890614 12.285109-5.058574 17.343684-7.949188 4.335921-2.890614 7.949188-6.503881 9.394495-10.117149 4.335921-22.402258 6.503881-45.52717 6.503881-68.652082s-2.16796-46.249824-6.503881-68.652082c-1.445307-4.335921-5.058574-7.226535-10.117149-10.117149-5.058574-2.890614-10.839802-5.781228-16.62103-7.949188-3.613267-1.445307-6.503881-2.890614-10.117149-4.335921-15.898377-7.226535-27.460833-15.175723-37.577982-25.292872-6.503881-6.503881-12.285109-13.730416-17.343684-22.402258-5.058574-9.394495-11.562456-19.511644-15.175723-31.796754-4.335921-13.730416-5.781228-29.628793-4.335921-47.695131 0-3.613267 0.722653-7.949188 1.445307-11.562456 0.722653-6.503881 1.445307-13.007763 1.445307-18.78899 0-5.058574-1.445307-9.394495-3.613267-13.007763-34.687368-31.0741-75.155963-54.199012-119.237827-68.652082-4.335921-0.722653-8.671842 0.722653-13.730416 3.613267s-10.117149 6.503881-15.898377 10.839803l-8.671842 6.503881c-14.45307 10.117149-27.460833 15.898377-40.468596 19.511644a115.624559 115.624559 0 0 1-28.183486 3.613268h-4.335921c-9.394495 0-20.234298-0.722653-30.351447-2.890614-14.45307-3.613267-28.183486-10.117149-43.359209-20.234298-2.890614-2.16796-6.503881-4.335921-9.394496-7.226535-5.781228-4.335921-10.839802-7.949188-15.898376-10.839802-5.058574-2.890614-9.394495-3.613267-13.730417-3.613268-44.081863 15.175723-84.550459 38.300635-119.237826 68.652082-2.16796 3.613267-3.613267 7.949188-3.613268 13.007763 0 5.781228 0.722653 12.285109 1.445307 18.788991 0.722653 3.613267 0.722653 7.226535 1.445307 10.839802 1.445307 17.343684 0.722653 31.796754-2.890614 45.52717-2.16796 8.671842-5.781228 17.343684-10.839802 26.015526-5.058574 9.394495-11.562456 19.511644-20.234298 28.90614-10.839802 11.562456-23.124912 20.234298-39.745942 27.460833-3.613267 1.445307-7.226535 2.890614-10.839802 5.058574-6.503881 2.890614-12.285109 5.058574-17.343684 7.949188-4.335921 2.890614-7.949188 6.503881-9.394496 10.117149-4.335921 22.402258-6.503881 45.52717-6.503881 68.652082s2.16796 46.249824 6.503881 68.652082c1.445307 4.335921 5.058574 7.226535 10.117149 10.117149 5.058574 2.890614 10.839802 5.781228 16.621031 7.949188 3.613267 1.445307 6.503881 2.890614 10.117149 4.335921 15.898377 8.671842 28.183486 16.62103 37.577981 26.015526zM513.806634 210.924488c57.812279 0 112.011291 28.183486 145.253352 75.155964 7.949188 11.562456 5.058574 27.460833-5.781228 35.410021-11.562456 7.949188-27.460833 5.058574-35.410021-5.781228-23.847565-33.964714-62.870854-54.199012-104.062103-54.199012-70.097389 0-127.187015 57.089626-127.187015 127.187015 0 59.98024 42.636556 112.011291 101.171489 125.019054 13.730416 2.890614 22.402258 16.62103 19.511644 29.628793-2.890614 13.730416-16.62103 22.402258-29.628793 19.511645-81.659845-17.343684-140.917431-90.331687-140.917431-174.159492-0.722653-97.558222 78.769231-177.772759 177.050106-177.77276zM574.509527 528.892025m-25.292872 0a25.292872 25.292872 0 1 1 50.585744 0 25.292872 25.292872 0 1 1-50.585744 0ZM640.270995 474.693013m-25.292872 0a25.292872 25.292872 0 1 1 50.585744 0 25.292872 25.292872 0 1 1-50.585744 0ZM667.009174 391.587862m-25.292872 0a25.292872 25.292872 0 1 1 50.585745 0 25.292872 25.292872 0 1 1-50.585745 0Z"  horiz-adv-x="1024" />

    
    <glyph glyph-name="tongji" unicode="&#59170;" d="M813.707833 122.038109m-27.460832 0a27.460833 27.460833 0 1 1 54.921665 0 27.460833 27.460833 0 1 1-54.921665 0ZM867.906845 208.756528m-27.460832 0a27.460833 27.460833 0 1 1 54.921665 0 27.460833 27.460833 0 1 1-54.921665 0ZM901.87156 303.424135m-27.460833 0a27.460833 27.460833 0 1 1 54.921665 0 27.460833 27.460833 0 1 1-54.921665 0ZM716.872265 70.729711c-63.593507-44.081863-138.749471-67.206775-216.073394-67.206775-211.01482 0-383.006351 171.991531-383.006352 383.006351 0 179.218066 127.187015 336.756528 302.791814 374.33451 13.730416 2.890614 22.402258 16.62103 19.511644 30.351446-2.890614 13.730416-16.62103 22.402258-30.351446 19.511645C211.01482 768.812985 67.206775 590.317572 67.206775 386.529287c0-239.198306 194.39379-433.592096 433.592096-433.592096 88.163726 0 172.714185 26.015526 244.979534 75.878617 11.562456 7.949188 14.45307 23.847565 6.503882 35.410021-7.949188 11.562456-23.847565 14.45307-35.410022 6.503882zM509.470713 832.406493c-13.730416 0-25.292872-11.562456-25.292872-25.292873v-408.299223c0-13.730416 11.562456-25.292872 25.292872-25.292873H917.769936c13.730416 0 25.292872 11.562456 25.292873 25.292873 0 238.475653-194.39379 433.592096-433.592096 433.592096zM534.763585 424.107269V781.098095c191.503176-12.285109 344.705716-166.210303 356.990826-356.990826H534.763585z"  horiz-adv-x="1024" />

    
    <glyph glyph-name="yonghu" unicode="&#59175;" d="M780.465773 268.014114c-15.898377 12.285109-31.796754 23.124912-49.140438 33.242061-33.964714 19.511644-70.097389 33.964714-108.398024 44.081863C695.192661 382.91602 744.333098 458.794637 744.333098 545.513056c0 125.019054-101.894143 226.913197-226.913197 226.913197s-226.913197-101.171489-226.913197-226.913197c0-86.718419 49.140438-162.597036 121.405787-200.897671-156.093155-39.745942-281.834862-165.48765-315.799576-327.362033-2.890614-13.730416 5.781228-26.738179 19.511644-29.628793 1.445307-0.722653 3.613267-0.722653 5.058574-0.722654 11.562456 0 22.402258 7.949188 24.570219 20.234298 36.855328 174.159492 192.948483 301.346507 371.443896 301.346507 66.484121 0 131.522936-17.343684 189.335215-50.585745 15.175723-8.671842 29.628793-18.788991 43.35921-28.906139 10.839802-8.671842 26.738179-6.503881 35.410021 4.335921 8.671842 10.117149 7.226535 26.015526-4.335921 34.687367zM341.092449 545.513056c0 97.558222 79.491884 176.327452 176.327452 176.327452S693.747354 643.071277 693.747354 545.513056 614.255469 369.185603 517.419901 369.185603s-176.327452 79.491884-176.327452 176.327453zM831.774171 181.295695m-27.460833 0a27.460833 27.460833 0 1 1 54.921666 0 27.460833 27.460833 0 1 1-54.921666 0ZM883.082569 102.526464m-27.460833 0a27.460833 27.460833 0 1 1 54.921666 0 27.460833 27.460833 0 1 1-54.921666 0ZM910.543402 15.085392m-27.460833 0a27.460833 27.460833 0 1 1 54.921665 0 27.460833 27.460833 0 1 1-54.921665 0Z"  horiz-adv-x="1024" />

    
    <glyph glyph-name="guanbi" unicode="&#59313;" d="M830.606452 789.470968L512 470.864516 193.393548 789.470968 106.529032 702.606452 425.083871 384l-318.554839-318.606452 86.864516-86.864516 318.606452 318.554839 318.606452-318.554839 86.864516 86.864516-318.606452 318.606452 318.606452 318.606452z"  horiz-adv-x="1024" />

    
    <glyph glyph-name="suiji" unicode="&#58918;" d="M911.478154 213.346462a38.990769 38.990769 0 0 1-30.326154 13.115076c-21.897846-0.827077-38.912-19.298462-38.084923-41.196307 0.472615-11.933538 6.380308-22.055385 14.966154-28.987077l47.182769-47.222154a289.201231 289.201231 0 0 0-139.264 61.794462L331.697231 638.936615A369.388308 369.388308 0 0 1 53.956923 764.849231a39.384615 39.384615 0 1 1 0-78.769231h0.039385c83.652923 0 163.249231-36.115692 219.214769-99.879385l433.624615-468.007384 8.27077-7.483077a369.664 369.664 0 0 1 194.048-81.762462l-52.539077-51.081846 0.984615-0.945231a39.069538 39.069538 0 0 1-17.604923-33.71323c0.866462-21.897846 19.298462-38.990769 41.156923-38.124308a38.912 38.912 0 0 1 29.971692 16.699077l0.393846-0.393846 148.48 144.226461-148.046769 148.204308-0.472615-0.472615zM911.163077 865.240615a38.990769 38.990769 0 0 1-30.011077 16.699077 39.660308 39.660308 0 0 1-41.117538-38.124307 38.990769 38.990769 0 0 1 17.604923-33.673847l-0.984616-1.024 48.600616-47.261538a366.08 366.08 0 0 1-217.481847-106.259692l-128.551384-139.34277 0.196923-0.196923a38.990769 38.990769 0 0 1-10.633846-26.505846 39.384615 39.384615 0 0 1 39.384615-39.384615 38.990769 38.990769 0 0 1 28.750769 12.878769l0.196923-0.196923 126.582154 137.294769a287.665231 287.665231 0 0 0 166.675693 82.944l-52.224-52.302769a39.108923 39.108923 0 0 1-15.044923-29.026462c-0.866462-21.897846 16.147692-40.329846 38.045538-41.196307a38.990769 38.990769 0 0 1 30.326154 13.115077l0.472615-0.433231 148.046769 148.164923-148.48 144.226462-0.393846-0.393847zM415.783385 341.110154a38.872615 38.872615 0 0 1-28.672-12.760616l-0.196923 0.157539-133.750154-144.265846A289.201231 289.201231 0 0 0 53.956923 105.156923v-0.472615c-0.866462 0.039385-1.575385 0.472615-2.441846 0.472615a39.384615 39.384615 0 1 1 0-78.769231c0.866462 0 1.575385 0.472615 2.441846 0.472616v-0.472616c94.562462 0 184.516923 35.721846 255.094154 102.4l135.601231 146.156308-0.196923 0.157538a38.872615 38.872615 0 0 1 10.712615 26.624 39.384615 39.384615 0 0 1-39.384615 39.384616"  horiz-adv-x="1063" />

    
    <glyph glyph-name="zhangdan" unicode="&#59182;" d="M890.309104 139.381793h-87.441073v59.980239h87.441073c13.730416 0 25.292872 11.562456 25.292872 25.292873s-11.562456 25.292872-25.292872 25.292872H859.957657l15.175723 33.964714c5.781228 13.007763 0 27.460833-13.007762 33.242061-13.007763 5.781228-27.460833 0-33.242061-13.007763l-23.847565-54.199012h-43.35921l-23.847565 54.199012c-5.781228 13.007763-20.234298 18.788991-33.242061 13.007763-13.007763-5.781228-18.788991-20.234298-13.007763-33.242061l15.175723-33.964714H664.841214c-13.730416 0-25.292872-11.562456-25.292872-25.292872s11.562456-25.292872 25.292872-25.292873h87.441073v-59.980239H664.841214c-13.730416 0-25.292872-11.562456-25.292872-25.292873s11.562456-25.292872 25.292872-25.292872h87.441073V21.589273c0-13.730416 11.562456-25.292872 25.292872-25.292872s25.292872 11.562456 25.292872 25.292872v67.206775h87.441073c13.730416 0 25.292872 11.562456 25.292872 25.292872s-11.562456 25.292872-25.292872 25.292873zM565.837685 66.39379H205.956246c-9.394495 0-16.62103 7.949188-16.621031 16.62103V744.242766c0 9.394495 7.949188 16.62103 16.621031 16.621031H787.692308c9.394495 0 16.62103-7.949188 16.62103-16.621031v-336.756527c0-13.730416 11.562456-25.292872 25.292872-25.292873s25.292872 11.562456 25.292873 25.292873V744.242766c0 36.855328-30.351447 67.206775-67.206775 67.206775H205.956246c-36.855328 0-67.206775-30.351447-67.206775-67.206775v-661.950599c0-36.855328 30.351447-67.206775 67.206775-67.206775h359.158786c13.730416 0 25.292872 11.562456 25.292872 25.292872s-10.839802 26.015526-24.570219 26.015526zM715.426958 695.824982H270.99506c-13.730416 0-25.292872-11.562456-25.292872-25.292872s11.562456-25.292872 25.292872-25.292872H715.426958c13.730416 0 25.292872 11.562456 25.292873 25.292872s-11.562456 25.292872-25.292873 25.292872zM740.719831 547.681016c0 13.730416-11.562456 25.292872-25.292873 25.292872H270.99506c-13.730416 0-25.292872-11.562456-25.292872-25.292872s11.562456-25.292872 25.292872-25.292872H715.426958c13.730416 0 25.292872 11.562456 25.292873 25.292872zM274.608327 418.326041m-27.460832 0a27.460833 27.460833 0 1 1 54.921665 0 27.460833 27.460833 0 1 1-54.921665 0ZM370.721242 418.326041m-27.460833 0a27.460833 27.460833 0 1 1 54.921666 0 27.460833 27.460833 0 1 1-54.921666 0ZM466.834157 418.326041m-27.460833 0a27.460833 27.460833 0 1 1 54.921665 0 27.460833 27.460833 0 1 1-54.921665 0Z"  horiz-adv-x="1024" />

    
    <glyph glyph-name="tubiaozhizuomoban" unicode="&#58923;" d="M685.7 793.8H336.3c-101.5 0-183.9-82.3-183.9-183.9v-91.4c0-15.2 12.4-27.6 27.6-27.6 15.2 0 27.6 12.3 27.6 27.6v91.4c0 71 57.7 128.7 128.7 128.7h349.4c71 0 128.7-57.7 128.7-128.7v-459.7c0-71-57.7-128.7-128.7-128.7H336.3c-71 0-128.7 57.7-128.7 128.7V352.5c0 15.2-12.3 27.6-27.6 27.6-15.2 0-27.6-12.3-27.6-27.6v-202.3c0-101.5 82.4-183.9 183.9-183.9h349.4c101.5 0 183.9 82.3 183.9 183.9V609.9c0 101.6-82.3 183.9-183.9 183.9zM345.5 536.4h36.8c15.2 0 27.6 12.3 27.6 27.6s-12.4 27.6-27.6 27.6h-36.8c-15.2 0-27.6-12.3-27.6-27.6s12.4-27.6 27.6-27.6zM529.4 536.4c15.2 0 27.6 12.3 27.6 27.6s-12.4 27.6-27.6 27.6h-36.8c-15.2 0-27.6-12.3-27.6-27.6s12.4-27.6 27.6-27.6h36.8zM676.5 536.4c15.2 0 27.6 12.3 27.6 27.6s-12.4 27.6-27.6 27.6h-36.8c-15.2 0-27.6-12.3-27.6-27.6s12.4-27.6 27.6-27.6h36.8zM345.5 352.5h331c15.2 0 27.6 12.3 27.6 27.6 0 15.2-12.4 27.6-27.6 27.6h-331c-15.2 0-27.6-12.3-27.6-27.6s12.4-27.6 27.6-27.6zM345.5 168.6h331c15.2 0 27.6 12.3 27.6 27.6 0 15.2-12.4 27.6-27.6 27.6h-331c-15.2 0-27.6-12.3-27.6-27.6s12.4-27.6 27.6-27.6z"  horiz-adv-x="1024" />

    
    <glyph glyph-name="shangchuantouxiang" unicode="&#58908;" d="M512 736c51.2 0 134.4-12.8 147.2-12.8l83.2-70.4 19.2-12.8h19.2l166.4-12.8c6.4-57.6 12.8-204.8 12.8-294.4 0-83.2-6.4-230.4-12.8-294.4-64-6.4-243.2-12.8-435.2-12.8s-371.2 6.4-435.2 12.8c-6.4 64-12.8 211.2-12.8 294.4 0 83.2 6.4 236.8 12.8 294.4L243.2 640h19.2l12.8 12.8 83.2 70.4c19.2 0 102.4 12.8 153.6 12.8M512 128c121.6 0 224 102.4 224 224S633.6 576 512 576 288 473.6 288 352 390.4 128 512 128M512 800c-64 0-160-12.8-160-12.8-6.4 0-19.2-6.4-25.6-12.8L243.2 704l-192-12.8c-19.2 0-32-19.2-32-32 0 0-12.8-211.2-12.8-320s12.8-320 12.8-320c0-19.2 19.2-32 32-32 0 0 224-12.8 467.2-12.8s460.8 12.8 460.8 12.8c19.2 0 32 19.2 32 32 0 0 12.8 211.2 12.8 320s-12.8 320-12.8 320c0 19.2-19.2 32-32 32l-192 12.8L704 774.4c-6.4 6.4-19.2 12.8-25.6 12.8-6.4 0-102.4 12.8-166.4 12.8zM512 192c-89.6 0-160 70.4-160 160S422.4 512 512 512s160-70.4 160-160S601.6 192 512 192z"  horiz-adv-x="1024" />

    
    <glyph glyph-name="jiechubangding" unicode="&#58909;" d="M523.804006 201.27232c-13.4656 11.35616-33.5104 9.49248-44.74368-3.91168l-136.92928-163.1488c-64.78848-77.2608-168.98048-96.99328-232.30976-43.87328-63.26784 53.12-61.87008 159.36 3.10272 236.81024l136.73984 162.89792a31.71328 31.71328 0 0 1-3.90656 44.74368 31.7696 31.7696 0 0 1-44.74368-3.90656L64.243046 267.9808c-87.47008-104.32-85.36064-250.71104 4.74624-326.29248 35.77344-30.03904 80.08704-44.43136 125.97248-44.43136 69.78048 0 143.19616 33.32608 195.85024 96.128l136.89856 163.1488a31.72864 31.72864 0 0 1-3.90656 44.73856zM1002.017126 757.8624c-24.45312 52.50048-71.17824 90.50624-131.62496 106.9568-58.46016 15.91808-123.12064 9.68192-181.82656-17.75104L494.328166 756.52608a31.79008 31.79008 0 0 1-15.36-42.22976c7.41888-15.85664 26.37312-22.77376 42.22976-15.36l194.176 90.54208c45.11744 21.00736 94.14144 26.03008 138.32704 14.02368 42.07616-11.44832 74.28096-37.20192 90.7264-72.48384 16.50688-35.4048 15.57504-76.61056-2.54464-116.07552-19.05152-41.29792-54.48704-75.67872-99.7888-96.80896l-194.79552-90.7264a31.72352 31.72352 0 0 1-15.39072-42.22976 31.76448 31.76448 0 0 1 42.19904-15.36l194.79552 90.7264c58.95168 27.45856 105.3696 72.8576 130.69312 127.83616 26.06592 56.68864 26.9312 116.88448 2.42176 169.48224zM377.356646 630.38464c5.58592-16.17408 11.88352-15.67232 13.88032 1.6384l20.39808 177.0752c1.96608 17.06496-10.3936 29.69088-27.66848 27.648l-43.60704-5.15072c-17.39776-2.05312-26.68032-16.99328-21.01248-33.40288l58.0096-167.808zM103.252326 696.98048l171.2128-61.75744c16.50176-5.94944 20.48512-0.77824 8.3712 11.7504L164.047206 769.792c-12.25216 12.66688-31.06304 11.52512-42.3168-2.23232l-28.40576-34.73408c-11.33568-13.85984-6.8096-29.80864 9.92768-35.84512zM104.573286 484.97664l172.63104 42.4192c16.64 4.08576 16.384 9.82016-1.10592 12.672l-171.45344 27.96544c-17.67936 2.88256-31.5136-8.86784-31.32416-26.18368l0.3584-33.03936c0.18432-17.21344 14.01856-27.97568 30.89408-23.8336zM383.992166 309.8112a31.8464 31.8464 0 0 1 21.31456-8.192 31.7952 31.7952 0 0 1 23.552 10.42432l232.83712 257.2544c11.72992 12.99968 10.73664 33.10592-2.23232 44.86656-12.90752 11.72992-33.0752 10.76736-44.928-2.23232l-232.77568-257.2288c-11.79648-12.99456-10.76736-33.1008 2.23232-44.89216z"  horiz-adv-x="1024" />

    
    <glyph glyph-name="bangding-" unicode="&#58914;" d="M577.14176 201.27232c-13.4656 11.35616-33.5104 9.49248-44.74368-3.91168l-136.92928-163.1488c-64.78848-77.2608-168.98048-96.99328-232.30976-43.87328-63.26784 53.12-61.87008 159.36 3.10272 236.81024l136.73984 162.89792a31.71328 31.71328 0 0 1-3.90656 44.74368 31.7696 31.7696 0 0 1-44.74368-3.90656l-136.77056-162.90304c-87.47008-104.32-85.36064-250.71104 4.74624-326.29248 35.77344-30.03904 80.08704-44.43136 125.97248-44.43136 69.78048 0 143.19616 33.32608 195.85024 96.128l136.89856 163.1488a31.72864 31.72864 0 0 1-3.90656 44.73856zM895.55456 849.792c-44.07808 37.56544-102.37952 52.6848-164.19328 42.496-59.78112-9.84576-115.98848-42.4192-157.95712-91.79136l-138.9568-163.1488a31.77984 31.77984 0 0 1 3.60448-44.78976c13.34272-11.33056 33.4592-9.73824 44.78976 3.60448l138.90048 163.1232c32.28672 37.87264 74.7776 62.83776 119.95136 70.30272 43.02336 7.09632 83.02592-2.92352 112.66048-28.16512 29.74208-25.32864 46.03904-63.18592 45.9776-106.60864-0.14336-45.48096-18.06336-91.48928-50.46272-129.55136L710.4768 401.7152a31.7184 31.7184 0 0 1 3.57376-44.80512 31.75424 31.75424 0 0 1 44.76416 3.58912l139.38688 163.54816c42.18368 49.49504 65.50528 110.09024 65.65888 170.624 0.12288 62.3872-24.13568 117.48864-68.30592 155.12064zM437.32992 309.8112a31.8464 31.8464 0 0 1 21.31456-8.192 31.7952 31.7952 0 0 1 23.552 10.42432l232.83712 257.2544c11.72992 12.99968 10.73664 33.10592-2.23232 44.86656-12.90752 11.72992-33.0752 10.76736-44.928-2.23232l-232.77568-257.2288c-11.79648-12.99456-10.76736-33.1008 2.23232-44.89216z"  horiz-adv-x="1024" />

    
    <glyph glyph-name="meiriyilian" unicode="&#58984;" d="M526.970592-127.998378a513.513157 513.513157 0 0 0-361.728692 147.756858 25.842673 25.842673 0 0 0 17.869934 44.303688l164.513356 1.663279c14.323439-0.329906 25.980134-11.313042 26.117595-25.595243a25.856419 25.856419 0 0 0-25.595243-26.117595l-95.342968-0.962228c80.510923-58.998273 177.682123-90.064465 279.045884-89.349667a462.267687 462.267687 0 0 1 327.638357 139.701642c135.454096 138.217062 171.16647 348.724878 88.841062 523.726511a25.856419 25.856419 0 0 0 46.736749 21.993764C1086.574431 414.711501 1046.903179 180.780326 896.397101 27.222613a513.650618 513.650618 0 0 0-364.038037-155.166007h-5.388472zM66.20123 158.896531a25.870165 25.870165 0 0 0-23.767011 15.656811C-40.867163 368.153452 0.618575 590.524154 148.128002 741.043979c199.52468 203.648511 527.520436 207.016306 731.196439 7.436641a25.856419 25.856419 0 0 0-17.869933-44.331181l-164.513357-1.663278c-13.64988 0.164953-25.966388 11.313042-26.117595 25.595243a25.828927 25.828927 0 0 0 25.581497 26.117595l95.232999 0.962227c-183.455486 133.997009-443.023143 116.649427-606.61551-50.310736a463.930965 463.930965 0 0 1-95.123031-509.87044 25.870165 25.870165 0 0 0-23.725773-36.069773zM277.822481 272.494323c-2.845443 9.704748-7.986486 25.663974-12.550192 34.791386 11.409265 2.845443 23.368375 16.495323 38.214166 37.636829 9.127412 10.831929 28.523163 40.496018 50.18702 76.414585-58.737097-7.986486-71.287288-11.395519-78.696437-15.395635a312.03653 312.03653 0 0 1-14.254709 39.863698c9.691002 2.281853 18.254824 16.495323 29.66409 35.932312 11.395519 18.254824 46.736749 92.964892 65.582656 161.970328l39.355092-17.677488c-21.100268-60.482852-50.764357-124.897089-81.555628-174.575504l60.482852 6.873051c10.831929 19.395751 20.536677 39.863698 29.66409 60.482852l35.918566-19.959341c-30.241426-61.032696-67.864509-122.615236-106.078674-173.379593l101.514968 19.959341c-0.577336-11.395519-0.577336-27.36849 0.56359-35.918566-128.897205-27.945827-146.574693-33.650459-157.970212-39.863698z m158.547548-47.905168c-57.03258-23.959457-115.783423-48.482504-161.984074-67.355903l-10.268338 41.059609c41.073355 13.746103 103.233231 36.495903 165.393107 58.737097z m106.642265 64.44173c-21.663858-47.327831-55.891653-102.655895-90.724278-139.165544a237.189001 237.189001 0 0 1-29.66409 23.959457c32.509533 33.073123 65.019066 84.978407 80.978291 126.038016z m93.473498 45.623314V171.556691c0-23.959457-5.127296-34.791386-20.536678-41.636945-16.495323-6.873051-42.764125-7.422895-82.119217-7.422895-1.704517 11.409265-7.409149 27.36849-12.536446 38.777756 29.086753-0.577336 55.891653-0.577336 63.878139 0s10.831929 2.845443 10.831929 10.268338V334.667946h-75.218673c-26.8049 0-45.623315-3.42278-50.187021-8.563822a348.711132 348.711132 0 0 1-13.746103 38.214165c10.268339 2.845443 19.395751 23.368375 31.368606 51.891538 2.859189 5.704633 6.281969 14.832045 10.845675 27.382236h-48.441265v39.355092h62.173622c5.704633 16.495323 11.972855 34.77764 17.113898 54.173391h-88.401187v38.791501h99.233116c6.268223 22.804784 11.395519 46.186905 15.395635 69.569026l42.214281-7.986486c-5.127296-19.959341-10.268339-41.059609-15.972971-61.596286h183.634185v-38.777755H571.535457c-5.704633-18.254824-11.972855-36.495903-17.677488-54.173391h82.696553v-109.473962h118.065276v-38.777755z m-40.427288 38.818994v70.105124h-56.455244c-9.704748-24.523047-18.832161-48.482504-28.523163-70.105124z m115.206086-74.228954c25.100383-39.863698 56.46899-94.614425 71.837133-125.983031l-35.932313-18.254824c-14.254708 32.509533-44.482388 88.401186-69.569025 129.460795z"  horiz-adv-x="1043" />

    
    <glyph glyph-name="anquanwenti" unicode="&#58917;" d="M808.652 548.618H541.193v176.25c0 18.286-13.294 33.109-29.681 33.109-16.403 0-29.68-14.823-29.68-33.109v-176.25H214.373c-16.403 0-29.68-14.823-29.68-33.125 0-18.286 13.277-33.126 29.68-33.126h267.459v-391.475c0-18.303 13.294-33.126 29.68-33.126 16.387 0 29.681 14.823 29.681 33.126V482.366h267.459c16.387 0 29.681 14.84 29.681 33.126 0 18.302-13.294 33.126-29.681 33.126zM920.265 791.389L511.513 881.22l-408.752-89.831-36.504-6.303V349.83c0-34.907 7.698-69.613 23.193-104.117 15.395-34.604 35.579-68.032 60.503-100.503 24.941-32.42 53.311-63.159 85.041-92.1 31.798-29.008 64.117-54.823 97.075-77.462 32.941-22.705 64.705-41.563 95.276-56.57 30.605-14.991 57.445-25.261 80.604-30.874l3.563-0.756 3.563 0.756c23.143 5.613 49.999 15.883 80.587 30.874 30.588 15.008 62.336 33.865 95.293 56.57 32.941 22.639 65.277 48.454 97.059 77.462 31.747 28.94 60.117 59.68 85.041 92.1 24.94 32.471 45.108 65.898 60.521 100.503 15.495 34.504 23.192 69.21 23.192 104.117V785.086l-36.503 6.303z m-23.68-275.561v-167.746c0-29.327-5.967-58.269-18.034-86.705-11.999-28.521-28.066-55.932-48.234-82.268-20.201-26.403-43.311-51.159-69.495-74.185-26.185-23.042-53.395-43.949-81.696-62.823-28.269-18.856-56.924-35.159-85.915-48.974-29.042-13.815-55.899-24.067-80.588-30.79h-2.218c-24.689 6.723-51.563 16.975-80.604 30.79-28.974 13.814-57.629 30.117-85.898 48.974-28.302 18.874-55.512 39.781-81.697 62.823-26.202 23.025-49.293 47.781-69.512 74.185-20.151 26.336-36.218 53.747-48.235 82.268-12.05 28.437-18.034 57.378-18.034 86.705V735.086l380.836 76.671 4.252-0.975 4.235 0.975 380.837-76.671v-219.258z"  horiz-adv-x="1024" />

    
    <glyph glyph-name="shoucang1" unicode="&#58921;" d="M707.584 802.816c-77.312 0-148.992-38.912-196.608-102.912-47.104 64-119.296 102.912-196.608 102.912-139.264 0-252.416-123.904-252.416-275.968 0-90.624 40.448-154.624 73.216-205.824 94.72-148.992 333.312-333.824 343.552-341.504 9.728-7.68 20.992-11.264 32.256-11.264s22.528 3.584 32.256 11.264c10.24 7.68 248.32 193.024 343.552 341.504 32.768 51.2 73.216 115.2 73.216 205.824 0 152.064-113.152 275.968-252.416 275.968z"  horiz-adv-x="1024" />

    


  </font>
</defs>
</svg>
