<?xml version="1.0" standalone="no"?>
<!DOCTYPE svg PUBLIC "-//W3C//DTD SVG 1.1//EN" "http://www.w3.org/Graphics/SVG/1.1/DTD/svg11.dtd" >
<svg xmlns="http://www.w3.org/2000/svg">
<metadata>
Created by FontForge 20120731 at Wed Jun 15 10:11:32 2016
 By admin
</metadata>
<defs>
<font id="iconfont" horiz-adv-x="1024" >
  <font-face 
    font-family="iconfont"
    font-weight="500"
    font-stretch="normal"
    units-per-em="1024"
    panose-1="2 0 6 3 0 0 0 0 0 0"
    ascent="896"
    descent="-128"
    x-height="792"
    bbox="-0.111111 -224 1293.5 896"
    underline-thickness="50"
    underline-position="-100"
    unicode-range="U+0078-E690"
  />
<missing-glyph horiz-adv-x="374" 
d="M34 0v682h272v-682h-272zM68 34h204v614h-204v-614z" />
    <glyph glyph-name=".notdef" horiz-adv-x="374" 
d="M34 0v682h272v-682h-272zM68 34h204v614h-204v-614z" />
    <glyph glyph-name=".null" horiz-adv-x="0" 
 />
    <glyph glyph-name="nonmarkingreturn" horiz-adv-x="341" 
 />
    <glyph glyph-name="x" unicode="x" horiz-adv-x="1001" 
d="M281 543q-27 -1 -53 -1h-83q-18 0 -36.5 -6t-32.5 -18.5t-23 -32t-9 -45.5v-76h912v41q0 16 -0.5 30t-0.5 18q0 13 -5 29t-17 29.5t-31.5 22.5t-49.5 9h-133v-97h-438v97zM955 310v-52q0 -23 0.5 -52t0.5 -58t-10.5 -47.5t-26 -30t-33 -16t-31.5 -4.5q-14 -1 -29.5 -0.5
t-29.5 0.5h-32l-45 128h-439l-44 -128h-29h-34q-20 0 -45 1q-25 0 -41 9.5t-25.5 23t-13.5 29.5t-4 30v167h911zM163 247q-12 0 -21 -8.5t-9 -21.5t9 -21.5t21 -8.5q13 0 22 8.5t9 21.5t-9 21.5t-22 8.5zM316 123q-8 -26 -14 -48q-5 -19 -10.5 -37t-7.5 -25t-3 -15t1 -14.5
t9.5 -10.5t21.5 -4h37h67h81h80h64h36q23 0 34 12t2 38q-5 13 -9.5 30.5t-9.5 34.5q-5 19 -11 39h-368zM336 498v228q0 11 2.5 23t10 21.5t20.5 15.5t34 6h188q31 0 51.5 -14.5t20.5 -52.5v-227h-327z" />
    <glyph glyph-name="uniE600" unicode="&#xe600;" horiz-adv-x="1000" 
d="M792 237q0 50 -18.5 106.5t-53.5 115.5t-60 94.5t-62 84.5q-15 20 -26.5 39t-15.5 28l-3 8q-5 -5 -8 -12q2 -33 2 -66q0 -110 -30.5 -171.5t-77.5 -61.5q-38 0 -67 32t-43 91q-16 -26 -33 -59.5t-37.5 -101t-20.5 -127.5q0 -3 1 -7q-1 -6 -1 -12q0 -63 36.5 -127
t102 -106.5t138.5 -42.5t138.5 42.5t102 106.5t36.5 127v9v10zM515 52q-53 0 -91 27t-38 66q0 33 26 57t67 32q19 9 35.5 17.5t29.5 17t22.5 14t19.5 13.5t14.5 11.5t13 11.5t10 10t10 11t8.5 10v-162q2 -8 2 -17q0 -41 -39 -80t-90 -39z" />
    <glyph glyph-name="uniE601" unicode="&#xe601;" horiz-adv-x="1000" 
d="M650 598v44q87 -5 156 -5q81 0 172 5v-44h-27q-19 0 -38 -7q-14 -5 -22.5 -13.5t-60.5 -104.5q-96 -175 -147 -276t-130 -273h-88q-112 247 -229 480q-44 86 -53 110q-19 49 -42.5 66.5t-59.5 17.5h-28v44q125 -5 208 -5q90 0 196 5v-44h-37q-52 0 -74 -10
q-14 -7 -14 -22q0 -13 15 -52t206 -454l152 324q52 113 64 156q3 12 3 20q0 15 -11 21.5t-57 11.5z" />
    <glyph glyph-name="uniE602" unicode="&#xe602;" horiz-adv-x="1000" 
d="M676 471q16 0 34 -2q-23 106 -123.5 176t-229.5 70q-95 0 -175.5 -39.5t-127.5 -108t-47 -150.5q0 -138 140 -236l-35 -106l122 62q89 -18 123 -18q15 0 33 2q-11 37 -11 73q0 115 86.5 196t210.5 81zM485.5 573q22.5 0 38.5 -16t16 -38.5t-16 -38t-38.5 -15.5t-38 15.5
t-15.5 38t15.5 38.5t38 16zM240.5 464q-22.5 0 -38 15.5t-15.5 38t15.5 38.5t38 16t38.5 -16t16 -38.5t-16 -38t-38.5 -15.5zM994 197q0 68 -41.5 127t-110 93t-146.5 34q-124 0 -211 -74.5t-87 -179.5t87 -179.5t211 -74.5q35 0 105 18l96 -53l-26 87q123 92 123 202z
M605 236q-16 0 -27.5 11.5t-11.5 27.5t11.5 27t27.5 11t27 -11t11 -27t-11 -27.5t-27 -11.5zM797 234q-16 0 -27 11.5t-11 27.5t11 27t27 11t27.5 -11t11.5 -27t-11.5 -27.5t-27.5 -11.5z" />
    <glyph glyph-name="uniE603" unicode="&#xe603;" 
d="M512 748q-91 0 -174 -35.5t-143.5 -95.5t-96 -143t-35.5 -174.5t35.5 -174.5t96 -143t143.5 -95.5t174 -35.5t174 35.5t143 95.5t95.5 143t35.5 174.5t-35.5 174.5t-95.5 143t-143 95.5t-174 35.5zM471 41q-63 77 -132 133.5t-122 75.5l164 99l80 -154q2 7 7 18.5
t22.5 46t37 67.5t49.5 77t61.5 80.5t72.5 71.5t82 56q-1 -15 -5 -52t-5 -56.5t3.5 -50.5t16.5 -59q-42 -9 -111.5 -75t-129.5 -143.5t-91 -134.5z" />
    <glyph glyph-name="uniE604" unicode="&#xe604;" 
d="M457 286q-148 147 -108 186q3 3 9 8q16 17 23.5 25.5t15.5 25t5 31.5t-14 38t-34 51q-15 19 -30 30.5t-27 17t-26 3t-22.5 -5t-22 -13t-19.5 -16t-19.5 -19.5t-17.5 -18q-15 -16 -18.5 -47t8 -75.5t35.5 -94.5t67 -109t98.5 -114.5t114.5 -98.5t109 -67t94.5 -35.5
t75.5 -8t47 19.5q4 3 18 16.5t19.5 19.5t16 19.5t13 22t5 22.5t-3 26t-17 27t-30.5 30q-28 23 -51 34t-38 14t-31.5 -5t-25 -15.5t-25.5 -23.5q-5 -6 -8 -9q-39 -39 -186 108v0z" />
    <glyph glyph-name="uniE605" unicode="&#xe605;" 
d="M916 636h-808q-45 0 -76.5 -37.5t-31.5 -90.5v-416q0 -53 31.5 -90.5t76.5 -37.5h808q45 0 76.5 37.5t31.5 90.5v416q0 53 -31.5 90.5t-76.5 37.5zM295 109l-103 344h63l73 -254l71 254h62l-103 -344h-63zM516 109v344h59v-344h-59zM657 109v344h94q53 0 69 -5
q25 -8 42 -34t17 -67q0 -31 -9.5 -52.5t-24.5 -34t-31 -16.5q-20 -5 -60 -5h-38v-130h-59zM716 395v-98h32q34 0 45.5 5.5t18.5 17t7 26.5q0 19 -9.5 31t-23.5 15q-11 3 -42 3h-28z" />
    <glyph glyph-name="uniE606" unicode="&#xe606;" 
d="M672 618h-76h-179h-175q-45 0 -77 -31.5t-32 -76.5v-450q0 -45 32 -77t77 -32h175h179h76q13 0 22.5 9.5t9.5 23.5v76v450v76q0 13 -9.5 22.5t-22.5 9.5zM653 480v-390v-66q0 -12 -7.5 -20t-18.5 -8h-62h-146h-144q-36 0 -62 27.5t-26 66.5v390q0 38 26 66t62 28h144h146
h62q11 0 18.5 -8.5t7.5 -20.5v-65zM768.5 667q-8.5 0 -14.5 -6t-6 -15v-590q0 -8 6 -14t14.5 -6t15 6t6.5 14v590q0 9 -6.5 15t-15 6zM856 768v0v0h-462q-11 0 -19 -8t-8 -19.5t8 -19t19 -7.5v-1h441v-566q0 -11 8 -19t19 -8t19 8t8 19v0v587q0 14 -9.5 24t-23.5 10z" />
    <glyph glyph-name="uniE607" unicode="&#xe607;" 
d="M512 687q-104 0 -192.5 -51.5t-140 -139.5t-51.5 -192.5t51.5 -192.5t140 -139.5t192.5 -51.5t192.5 51.5t139.5 139.5t51 192.5t-51 192.5t-139.5 139.5t-192.5 51.5zM512 17q-119 0 -203 84t-84 202.5t84 202.5t203 84t203 -84t84 -202.5t-84 -202.5t-203 -84zM688 351
h-128v175q0 7 -5 12t-13 5h-61q-7 0 -12 -5t-5 -12v-192v-37v-24q0 -7 4.5 -12t11.5 -5h208q6 0 11 5t5 12v61q0 7 -5 12t-11 5z" />
    <glyph glyph-name="uniE608" unicode="&#xe608;" 
d="M638 396h-256q-13 0 -22.5 9t-9.5 22.5t9.5 23t22.5 9.5h256q13 0 22.5 -9.5t9.5 -23t-9.5 -22.5t-22.5 -9zM577 268h-195q-13 0 -22.5 9.5t-9.5 22.5t9.5 22.5t22.5 9.5h195q13 0 22.5 -9.5t9.5 -22.5t-9.5 -22.5t-22.5 -9.5zM960 364q0 104 -60 192.5t-163.5 140
t-224.5 51.5t-224.5 -51.5t-163.5 -140t-60 -192.5q0 -88 45.5 -166.5t127.5 -134.5q11 -7 24 -4.5t20.5 13.5t5 24t-13.5 20q-69 47 -107 112t-38 136q0 86 51.5 160t140 117t192.5 43t192.5 -43t140 -117t51.5 -160.5t-51.5 -160t-140 -116.5t-192.5 -43q-1 0 -3 -0.5
t-3 -0.5q-11 2 -21 -3.5t-14 -16.5q-9 -26 -94 -74q17 58 3 79q-11 16 -30 16q-13 0 -22.5 -9.5t-9.5 -22.5q0 -9 4 -16q-5 -33 -33 -100q-8 -20 8 -35q9 -9 22 -9q7 0 13 3q144 64 188 125q119 2 220.5 53.5t160.5 139.5t59 191zM960 364z" />
    <glyph glyph-name="uniE609" unicode="&#xe609;" 
d="M814 492q8 0 9.5 -3.5t-2.5 -9.5l-298 -357q-5 -6 -11.5 -6t-10.5 6l-298 357q-5 6 -3 9.5t9 3.5h605z" />
    <glyph glyph-name="uniE60A" unicode="&#xe60a;" 
d="M743 310q-17 4 -21.5 10.5t-1.5 11.5l4 6q1 2 3.5 6.5t6 17t4.5 25t-4 28t-18 27.5q-31 26 -72 22.5t-77.5 -15.5t-36.5 -14q-10 -3 -17.5 -4.5t-11.5 0t-6 3.5t-1.5 8t1 10t3 13.5t3.5 15.5q0 16 -2.5 30t-12 29.5t-25 23.5t-44 7.5t-66.5 -13.5q-37 -13 -76.5 -39
t-69 -54t-54 -54t-36.5 -43l-13 -17q-22 -30 -37.5 -60.5t-21.5 -52.5t-8.5 -40t-2.5 -27l1 -9q6 -53 31.5 -94.5t61 -67.5t84 -44t93 -26.5t94.5 -12.5q81 -6 168 13.5t162 66.5t106 113q19 39 19 73t-12 55.5t-31 38t-36 24t-30 9.5zM408 -31q-118 -6 -201 46t-83 131
q0 78 82.5 134.5t201.5 61.5q120 6 202.5 -39.5t82.5 -122.5q0 -80 -84 -143t-201 -68zM377 273q-32 -4 -57.5 -15t-39.5 -26t-24 -32.5t-13.5 -33.5t-5 -30t-1.5 -22l1 -8v-5q0 -3 2.5 -12.5t6 -18t12.5 -18.5t22 -17q71 -35 134 -21t101 64q15 18 20 45.5t-2.5 55.5
t-24.5 51.5t-51.5 35.5t-79.5 7zM337 64.5q-22 -2.5 -37.5 9t-15.5 29.5q0 19 14.5 35t35.5 19q25 2 40.5 -10t15.5 -31t-15.5 -34t-37.5 -17.5zM430.5 144.5q-7.5 -5.5 -15.5 -5t-12 7.5q-5 6 -3 15.5t9 14.5q9 6 17 5t12 -7.5t2 -15.5t-9.5 -14.5zM820 375q9 0 16.5 6
t8.5 15v3q4 36 -1.5 63t-18 42t-28 25t-32 12.5t-30.5 3.5t-23 -1l-9 -1q-10 0 -18 -7.5t-8 -18.5t8 -18.5t18 -7.5q86 19 93 -55q1 -19 -2 -36q0 -10 7.5 -17.5t18.5 -7.5zM801 678q-55 13 -129 -1q-1 0 -2 -1t-2 -1h-1q-12 -4 -19.5 -14t-7.5 -23q0 -15 11 -26.5t26 -11.5
q21 3 34 8q6 1 19.5 2.5t36 -4.5t45 -14.5t46.5 -28.5t40 -47q29 -65 12 -126q-8 -18 -8 -36q0 -15 11 -24.5t27 -9.5t24.5 6t11.5 26q20 61 15.5 110.5t-21.5 86.5t-46.5 63.5t-60 42.5t-62.5 23z" />
    <glyph glyph-name="uniE60B" unicode="&#xe60b;" 
d="M511.5 586.5q-57.5 -0.5 -124 -28t-122 -67t-102 -82.5t-73 -78.5t-26.5 -50.5q0 -16 24.5 -51.5t69.5 -79.5t99.5 -84t123 -66.5t131.5 -25.5t131.5 29.5t123 69.5t99.5 84.5t69.5 77.5t24.5 45.5t-26.5 46t-73 79t-102 85.5t-122.5 69t-124.5 27.5zM512 75
q-85 0 -145 60t-60 144.5t60 144.5t145 60t145 -60t60 -144.5t-60 -144.5t-145 -60zM428 279q0 -34 24.5 -58.5t59 -24.5t59 24.5t24.5 58.5v0q0 34 -24.5 58.5t-59 24.5t-59 -24.5t-24.5 -58.5z" />
    <glyph glyph-name="uniE60C" unicode="&#xe60c;" horiz-adv-x="1025" 
d="M961 79q-20 26 -58 43t-80 26t-84 17.5t-78.5 24.5t-53.5 39q-9 12 -8 56q0 11 9 19q41 37 66 96t25 121q0 53 -4 92t-15.5 78.5t-31.5 64.5t-54 40.5t-81 15.5q-48 0 -83 -15.5t-55 -41t-31.5 -65t-15 -79t-3.5 -92.5q1 -61 26 -120t66 -95q8 -8 8 -20q1 -43 -8 -55
q-17 -23 -54 -38.5t-79.5 -24t-85.5 -17.5t-80.5 -26t-56.5 -44q-50 -71 -61 -263q-1 -11 7 -19.5t19 -8.5h972q11 0 19 8t7 20q-10 193 -63 263z" />
    <glyph glyph-name="uniE60D" unicode="&#xe60d;" 
d="M829 341v-343h-700v601h445q-18 30 -12 65h-465q-13 0 -22.5 -9.5t-9.5 -23.5v-665q0 -14 9.5 -23.5t22.5 -9.5h764q13 0 22.5 9.5t9.5 23.5v351h-1h-1q-36 0 -62 24zM954 710q-9 9 -22 7l-285 -45q-9 -2 -15 -8v0q-2 -3 -3 -4q-2 -3 -2 -6q-5 -14 6 -25l78 -78
l-219 -219q-18 -18 -18 -42.5t17.5 -42t42 -17.5t42.5 18l219 219l34 -34l44 -44q2 -2 5 -4l1 -1q2 -1 5 -2h1q3 -1 6 -1q4 0 7 2q15 4 18 20l45 285q2 13 -7 22z" />
    <glyph glyph-name="uniE60E" unicode="&#xe60e;" 
d="M763 594l-251 -251l-252 251q-10 11 -24.5 11t-24.5 -10.5t-10 -25t10 -24.5l252 -251l-252 -252q-10 -10 -10 -24.5t10 -24.5t24.5 -10t24.5 10l252 252l252 -252q10 -10 24 -10t24.5 10t10.5 24.5t-10 24.5l-252 252l252 251q10 10 10 24.5t-10.5 25t-24.5 10.5
t-25 -11z" />
    <glyph glyph-name="uniE60F" unicode="&#xe60f;" 
d="M644 -105q-25 0 -41 18q-16 17 -42.5 35t-48.5 18q-23 0 -49.5 -18t-41.5 -34q-16 -18 -41 -18q-11 0 -21 5h-1l-107 60l-1 1q-14 10 -19 27.5t2 33.5q10 23 10 43q0 47 -33 80t-80 33h-4q-14 0 -24 11t-13 30q-10 48 -10 85t10 85q3 19 13.5 30t23.5 10h4q47 0 80 33.5
t33 79.5q0 21 -10 44q-7 16 -2 33.5t19 27.5l2 1l112 62h1q10 4 21 4q25 0 41 -16q15 -17 41 -34t48 -17t47.5 17t41.5 33t40 16q12 0 21 -4l2 -1l108 -60l1 -1q15 -10 20 -27.5t-2 -33.5q-10 -23 -10 -44q0 -46 33 -79.5t80 -33.5h3q14 1 24.5 -10t13.5 -30q9 -48 9 -85
t-9 -85q-3 -19 -13.5 -30t-24.5 -11h-3q-47 0 -80 -33t-33 -80q0 -20 10 -43q7 -16 2 -33.5t-20 -27.5l-1 -1l-110 -61l-1 -1q-10 -4 -21 -4zM641 -53q1 -1 3 -1l103 57q-13 33 -13 63q0 66 45 113.5t110 50.5q8 45 8 75t-8 75q-65 3 -110 50.5t-45 112.5q0 31 13 64
l-101 56h-1q-2 0 -3 -1q-16 -16 -38 -32q-47 -33 -88 -33t-89 34q-22 16 -37 32q-2 1 -4 1h-1l-105 -57q14 -33 14 -64q0 -65 -45 -112.5t-110 -50.5q-8 -45 -8 -75t8 -75q65 -3 110 -50.5t45 -113.5q0 -30 -14 -63l100 -55h3q16 18 38 34q49 35 91 35t90 -36q23 -16 39 -34
zM512 155q-62 0 -106 44t-44 106.5t44 106.5t106 44t106 -44t44 -106.5t-44 -106.5t-106 -44zM512 405q-41 0 -70 -29t-29 -70.5t29 -70.5t70 -29t70 29t29 70.5t-29 70.5t-70 29z" />
    <glyph glyph-name="uniE610" unicode="&#xe610;" 
d="M747 384q0 -39 27.5 -66.5t66 -27.5t66 27.5t27.5 66.5t-27.5 66.5t-66 27.5t-66 -27.5t-27.5 -66.5zM90 384q0 -39 27.5 -66.5t66 -27.5t66 27.5t27.5 66.5t-27.5 66.5t-66 27.5t-66 -27.5t-27.5 -66.5zM418 384q0 -39 27.5 -66.5t66.5 -27.5t66.5 27.5t27.5 66.5
t-27.5 66.5t-66.5 27.5t-66.5 -27.5t-27.5 -66.5z" />
    <glyph glyph-name="uniE611" unicode="&#xe611;" 
d="M281 362l417 -416q9 -10 22.5 -10t22.5 9.5t9 23t-9 22.5l-373 374l-11 10q-5 6 -4.5 10.5t2.5 7.5l3 3l381 381q9 9 9 22.5t-9.5 23t-22.5 9.5t-23 -10l-412 -412v-1h-1l-1 -1q-9 -10 -9 -23t9 -23z" />
    <glyph glyph-name="uniE612" unicode="&#xe612;" 
d="M512 730q13 0 21 -6l476 -408q17 -14 13 -32t-20 -23t-34 7l-456 390v72zM512 -154h317q35 0 59.5 24.5t24.5 59.5v323q0 21 -16 30t-32 0t-16 -30v-323q0 -9 -6 -15t-14 -6h-184v272q0 12 -10 22t-22 10h-101v-64h69v-240h-69v-63zM15 316l476 408q8 6 21 6v-72
l-456 -390q-16 -14 -33.5 -7t-20 23.5t12.5 31.5zM512 213h-101q-12 0 -22 -10t-10 -22v-272h-184q-9 0 -15 6t-6 15v323q0 21 -16 30t-32 0t-16 -30v-323q0 -35 25 -59.5t60 -24.5h317v63h-69v240h69v64z" />
    <glyph glyph-name="uniE613" unicode="&#xe613;" 
d="M70 210l247 138l120 -217q3 9 10.5 25t32.5 63.5t53 93.5t72.5 108t91.5 114t109.5 103t127.5 84q-2 -9 -4 -25.5t-5.5 -61t-3 -82.5t8.5 -78t24 -60q-4 -1 -12.5 -4.5t-37 -18.5t-58.5 -36.5t-76.5 -61.5t-93.5 -89t-106.5 -124.5t-117.5 -164.5z" />
    <glyph glyph-name="uniE614" unicode="&#xe614;" 
d="M727 307v-48q0 -82 -55 -143t-136 -70v-49h95q10 0 17 -7t7 -17t-7 -17t-17 -7h-238q-10 0 -17 7t-7 17t7 17t17 7h95v49q-81 9 -136 70t-55 143v48q0 10 7 17t17 7t17 -7t7 -17v-48q0 -69 49 -118t118 -49t118 49t49 118v48q0 10 7 17t17 7t17 -7t7 -17zM631 450v-191
q0 -49 -35 -84t-84 -35t-84 35t-35 84v191q0 50 35 85t84 35t84 -35t35 -85z" />
    <glyph glyph-name="uniE615" unicode="&#xe615;" 
d="M97 683h230q14 0 23 9.5t9 22.5t-9 22.5t-23 9.5h-230q-13 0 -22.5 -9.5t-9.5 -22.5t9.5 -22.5t22.5 -9.5zM684 -86h-587q-13 0 -22.5 -9.5t-9.5 -22.5t9.5 -22.5t22.5 -9.5h587q13 0 22.5 9.5t9.5 22.5t-9.5 22.5t-22.5 9.5zM954 -16l-168 279q49 38 77 94t28 119
q0 112 -79.5 191.5t-191.5 79.5t-191.5 -79.5t-79.5 -191.5t79.5 -191t191.5 -79q58 0 112 24l167 -279q10 -16 28 -16q8 0 16 5q11 6 14.5 19t-3.5 25zM413 476.5q0 85.5 61 146t146 60.5t146 -60.5t61 -146t-61 -146t-146 -60.5t-146 60.5t-61 146zM97 405h141
q13 0 22.5 9.5t9.5 23t-9.5 22.5t-22.5 9h-141q-13 0 -22.5 -9t-9.5 -22.5t9.5 -23t22.5 -9.5zM97 128h335q13 0 22.5 9t9.5 22.5t-9.5 23t-22.5 9.5h-335q-13 0 -22.5 -9.5t-9.5 -23t9.5 -22.5t22.5 -9z" />
    <glyph glyph-name="uniE616" unicode="&#xe616;" 
d="M705 -115h-588q-29 0 -50 21t-21 50v687q0 30 21 50.5t50 20.5h584q9 0 15.5 7t6.5 16q0 8 -5 14.5t-13 7.5h-588q-48 0 -82 -34t-34 -82v-687q0 -47 34 -81t82 -34h584q9 0 15.5 6.5t6.5 15.5q0 8 -5 14.5t-13 7.5zM1015 318l-138 138l-23 23l-26 26q-6 6 -15.5 6
t-15.5 -6q-15 -15 -2 -30l39 -40h1l111 -112h-443q-9 0 -15.5 -6.5t-6.5 -16t6.5 -16t15.5 -6.5h443l-101 -102l-7 -6l-47 -48q-8 -15 4 -27q6 -6 16 -6t18 7l12 13l34 34l7 6l133 134q6 7 6 17v1q0 10 -6 17z" />
    <glyph glyph-name="uniE617" unicode="&#xe617;" 
d="M597 641q18 0 31 -12l298 -299q13 -12 13 -30t-13 -30l-298 -299q-13 -12 -31 -12t-30 12t-12 30t12 31l226 225h-665q-18 0 -30.5 12.5t-12.5 30.5t12.5 30.5t30.5 12.5h665l-226 225q-12 13 -12 31t12 30t30 12z" />
    <glyph glyph-name="uniE618" unicode="&#xe618;" horiz-adv-x="1286" 
d="M1154 -64q0 -61 -38 -104.5t-92 -43.5h-764q-54 0 -91.5 43.5t-37.5 104.5v728q0 61 37.5 104.5t91.5 43.5h764q54 0 92 -43.5t38 -104.5v-728zM751 749h-128l43 -171h128zM537 749l-150 4l39 -177l154 2zM195 749v-171l133 -2l-48 173h-85zM1092 459q0 29 -19 49.5
t-46 20.5h-766q-27 0 -46 -20.5t-19 -49.5v-529q0 -29 19 -49.5t46 -20.5h766q27 0 46 20.5t19 49.5v529zM1051 578v86l-43 85h-128l42 -171h129zM833 235l-321 161q-19 9 -20 -20q0 -9 1 -30q1 -17 1 -25v-256q0 -9 -1 -24q-1 -10 -1 -14t1.5 -8t6 -3.5t12.5 4.5l321 160
q23 12 23 28t-23 27zM833 235z" />
    <glyph glyph-name="uniE619" unicode="&#xe619;" 
d="M286.5 435q-23.5 0 -40 -17t-16.5 -41t16.5 -41t40 -17t39.5 17t16 41t-16 41t-39.5 17zM511 435q-23 0 -39.5 -17t-16.5 -41t16.5 -41t39.5 -17t39.5 17t16.5 41t-16.5 41t-39.5 17zM735.5 435q-23.5 0 -40 -17t-16.5 -41t16.5 -41t40 -17t40 17t16.5 41t-16.5 41
t-40 17zM848 726h-674q-47 0 -79.5 -34t-32.5 -82v-437q0 -49 34 -86.5t81 -37.5h171l153 -159q10 -11 20 0q90 102 149 159h175q47 0 81 37.5t34 86.5v437q0 48 -33 82t-79 34zM904 173q0 -25 -17.5 -45.5t-41.5 -20.5h-172q-9 0 -19 -5.5t-15 -10.5l-5 -6l-121 -125
l-121 125q-23 22 -43 22h-172q-24 0 -41.5 20.5t-17.5 45.5v437q0 24 16.5 41t39.5 17h674q23 0 39.5 -17t16.5 -41v-437z" />
    <glyph glyph-name="uniE61A" unicode="&#xe61a;" 
d="M930 300l-418 -1l-1 419q0 12 -9 21t-21 9q-13 0 -22 -9t-9 -22v-418h-418q-12 0 -21 -9t-9 -21.5t9 -21.5t21 -9h418l1 -418q0 -13 9 -22t21 -9q13 0 22 9t9 22v418h418q12 0 21 9t9 22t-9 22t-21 9z" />
    <glyph glyph-name="uniE61B" unicode="&#xe61b;" 
d="M781 752h-49q-11 0 -20 -6t-9 -16t9.5 -18.5t19.5 -8.5h49q22 0 36 -13.5t14 -35.5v-565q0 -22 -14 -36t-36 -14h-528q-24 0 -43 14.5t-19 35.5v565q0 22 13.5 35.5t35.5 13.5h62q19 0 19 27q0 22 -19 22h-62q-49 0 -73.5 -27t-24.5 -72v-559q0 -47 27 -75.5t76 -28.5
h531q51 0 77.5 26.5t26.5 77.5v559q0 44 -26 71.5t-73 27.5zM302 531q0 -11 7.5 -18.5t17.5 -7.5h369q10 0 17.5 7.5t7.5 18t-7.5 18t-17.5 7.5h-369q-10 0 -17.5 -7.5t-7.5 -17.5zM695 420h-368q-10 0 -17.5 -7.5t-7.5 -17.5t7.5 -17.5t17.5 -7.5h369q10 0 17.5 7.5
t7.5 17.5q-1 11 -8.5 18t-17.5 7zM695 272h-368q-10 0 -17.5 -7t-7.5 -17.5t7.5 -18t17.5 -7.5h369q10 0 17.5 7.5t7.5 17.5q-1 11 -8.5 18t-17.5 7zM426 690h172q14 0 25 13t11 30.5t-11 30t-26 12.5h-171q-15 0 -26 -12.5t-11 -30t11 -30.5t26 -13zM426 690z" />
    <glyph glyph-name="uniE61C" unicode="&#xe61c;" 
d="M972.5 306q-6.5 -6 -15.5 -6t-15 6l-199 171q-1 1 -4 3l-85 73q-2 1 -4 4l-139 118l-429 -369q-6 -6 -15.5 -6t-15.5 6t-6 13.5t6 12.5l443 380q1 2 2 3q6 5 15.5 5t16.5 -5q0 -1 0.5 -2t1.5 -1l115 -99v50q0 8 6.5 13.5t16.5 5.5h89q9 0 16 -6q6 -5 6 -13v-165l194 -166
q6 -5 6 -12.5t-6.5 -13.5zM735 644h-45v-69l45 -38v107zM200.5 339q9.5 0 16 -5.5t6.5 -13.5v-362q0 -16 13 -27.5t31 -11.5h134v248q0 8 6.5 13.5t15.5 5.5h178q10 0 16.5 -5.5t6.5 -13.5v-248h133q19 0 32 11.5t13 27.5v362q0 8 6.5 13.5t16 5.5t16 -5.5t6.5 -13.5v-362
q0 -32 -26 -54.5t-64 -22.5h-490q-36 0 -62.5 22.5t-26.5 54.5v362q0 8 6.5 13.5t16 5.5zM579 -81v229h-134v-229h134z" />
    <glyph glyph-name="uniE61D" unicode="&#xe61d;" 
d="M764 -94h-558q-29 0 -49.5 21t-20.5 50v630q0 29 20.5 49.5t49.5 20.5h554q27 0 27 39q0 11 -5 22t-18 11h-584q-47 0 -81 -34t-34 -82v-682q0 -48 34 -82t81 -34h580q10 0 19 11.5t9 27.5q0 12 -7.5 21.5t-16.5 10.5zM953 315l-137 138l-20 20l-20 20q-6 7 -18 5.5
t-21 -10.5q-11 -11 -11.5 -24t5.5 -18l29 -29l88 -88h-371q-10 0 -20 -9t-10 -23q0 -16 9.5 -24.5t20.5 -8.5h369l-77 -77l-5 -5l-33 -33q-9 -9 -7.5 -21t11.5 -22q8 -8 19 -9t21 8l7 7l30 30l6 6l135 136q6 6 6 15v1q1 9 -6 15z" />
    <glyph glyph-name="uniE61E" unicode="&#xe61e;" 
d="M128 332q0 -13 9.5 -22.5t22.5 -9.5h627l-138 -137q-9 -10 -9 -23t9.5 -22.5t22.5 -9.5t23 9l192 192q4 5 7 11q2 6 2 12v0q0 6 -2.5 12t-6.5 11l-192 192q-10 9 -23 9t-22.5 -9.5t-9.5 -22.5t9 -23l138 -137h-627q-13 0 -22.5 -9.5t-9.5 -22.5z" />
    <glyph glyph-name="uniE61F" unicode="&#xe61f;" 
d="M512 740q93 0 175 -35.5t142.5 -96t96 -142.5t35.5 -175q0 -94 -35.5 -176t-96 -143t-142.5 -96.5t-175 -35.5t-175 35.5t-143 96.5t-96 143t-35 176q0 93 35 175t96 142.5t143 96t175 35.5zM635 166q2 4 -3.5 10t-13 13t-13.5 14.5t-4 14.5q5 15 3.5 22.5t-9 9.5
t-22 1.5t-34.5 -0.5q-11 0 -17.5 -0.5t-12.5 -1t-12.5 -1t-15.5 0.5q-13 1 -20.5 4.5t-13.5 7.5t-15.5 7t-27.5 4q-26 1 -37 2t-16 2.5t-8 2t-11 0.5q-9 -1 -26.5 -8.5t-36 -17.5t-32 -20.5t-13.5 -17.5q0 -19 2.5 -30.5t7 -18t9 -10t9.5 -8.5t13 -7t17.5 -2.5t18 -2
t13.5 -6.5q9 -12 19.5 -10t19 6.5t13.5 3.5t6 -18q0 -8 3 -12t8 -6l11 -5q7 -4 14 -11q8 -8 5.5 -14.5t-7 -12.5t-9 -13.5t0.5 -14.5q7 -10 14.5 -15t14.5 -8t13 -7.5t8 -14.5q0 -2 6 -10l14 -18q6 -8 9.5 -13.5t-2.5 -5.5q12 -1 25 -1t17 4l2 2v1l2 1q2 1 5.5 2.5t9.5 6.5
q11 7 21.5 19.5t18.5 27.5t13 30.5t7 28.5t6.5 18.5t7.5 10t5.5 11.5t-0.5 24q-3 22 5.5 32.5t14.5 16.5zM729 16q14 16 14.5 26.5t-22.5 16.5q-24 6 -34 6.5t-19 -10t-12.5 -22t2.5 -30.5q2 -8 4 -13.5t5 -7t8.5 -1t16.5 3.5q12 3 22.5 13.5t14.5 17.5zM755 296q7 6 23 9.5
t32 9t28.5 15t13.5 26.5t0 31.5t-6 29t-13 30t-20 35.5q-14 21 -25 35.5t-21.5 24.5t-22 18.5t-25.5 16.5q-15 9 -30 19t-32.5 13.5t-37.5 -4.5t-46 -34l-16 -17q-11 -9 -22.5 -18t-22 -15t-18.5 -6t-24.5 -2t-33 -9.5t-28.5 -21.5t-10 -37q1 -26 9 -33.5t21 -8.5t30.5 -2
t38.5 -13q24 -5 45 -11q18 -5 36.5 -12t31.5 -15q14 -8 11 -22t-10 -28.5t-12 -28t6 -20.5q14 -11 21 -14t14.5 -1.5t21 4.5t41.5 3q-8 0 -3.5 5.5t15 14.5t22 18t18.5 15z" />
    <glyph glyph-name="uniE620" unicode="&#xe620;" 
d="M712 86q-7 0 -11.5 -3.5t-5.5 -6.5l-2 -4v-193h-517q-36 0 -61.5 25.5t-25.5 61.5v641h517q36 0 61.5 -26t25.5 -62v-75q0 -2 1 -4.5t5.5 -6.5t12.5 -3q6 0 10.5 3.5t5.5 7.5l1 3v77q0 50 -36 85.5t-86 35.5h-554v-680q0 -49 35 -84t84 -35h557v229v1q-6 13 -17 13z
M163 431h423q8 0 14 6t6 14.5t-6 14.5t-14 6h-423q-9 0 -15 -6t-6 -14.5t6 -14.5t15 -6zM163 319h423q8 0 14 6t6 14.5t-6 14.5t-14 6h-423q-9 0 -15 -6t-6 -14.5t6 -14.5t15 -6zM163 206h310q8 0 14 6t6 14.5t-6 14.5t-14 6h-310q-9 0 -15 -6t-6 -14.5t6 -14.5t15 -6z
M409 -50l171 44l418 419l-129 127l-416 -417zM870 488l78 -77l-41 -40l-76 77zM485 103l319 318l78 -75l-320 -319l-103 -28z" />
    <glyph glyph-name="uniE621" unicode="&#xe621;" horiz-adv-x="1742" 
d="M1293 124v323v4v264q0 40 -28 68.5t-68 28.5h-697q-40 0 -68.5 -28.5t-28.5 -68.5v-830q0 -40 28.5 -68.5t68.5 -28.5h325q11 0 19 8t8 19t-8 19t-19 8h-325q-18 0 -30.5 12.5t-12.5 30.5v830q0 18 12.5 30.5t30.5 12.5h697q17 0 30 -12.5t13 -30.5v-573h-243
q-24 0 -41 -16.5t-17 -40.5v-266q0 -31 20 -31q12 0 25 13l296 297q12 12 13 22q1 2 0 4zM1199 90l-208 -207v202q0 5 6 5h202zM541 521h613q13 0 22 9t9 21.5t-9 21.5t-22 9h-613q-13 0 -22 -9t-9 -21.5t9 -21.5t22 -9zM541 292h613q13 0 22 9t9 21.5t-9 21.5t-22 9h-613
q-13 0 -22 -9t-9 -21.5t9 -21.5t22 -9z" />
    <glyph glyph-name="uniE622" unicode="&#xe622;" 
d="M633 -42q-66 0 -112.5 46.5t-46.5 112.5t46.5 112.5t112.5 46.5t112.5 -46.5t46.5 -112.5t-46.5 -112.5t-112.5 -46.5zM632.5 232q-47.5 0 -81 -33.5t-33.5 -81.5t33.5 -81.5t81 -33.5t81.5 33.5t34 81.5t-34 81.5t-81.5 33.5zM841 -113q-9 0 -15 6l-112 112q-6 6 -6 15
t6.5 15.5t15.5 6.5t15 -6l112 -112q6 -6 6 -15t-6.5 -15.5t-15.5 -6.5zM650 514h-379q-9 0 -15.5 6.5t-6.5 15.5t6.5 15.5t15.5 6.5h379q9 0 15 -6.5t6 -15.5t-6 -15.5t-15 -6.5zM602 389h-331q-9 0 -15.5 6.5t-6.5 15.5t6.5 15.5t15.5 6.5h331q9 0 15.5 -6.5t6.5 -15.5
t-6.5 -15.5t-15.5 -6.5zM497 267h-226q-9 0 -15.5 6t-6.5 15.5t6.5 15.5t15.5 6h226q9 0 15.5 -6t6.5 -15.5t-6.5 -15.5t-15.5 -6zM703 -147h-495q-27 0 -46.5 19.5t-19.5 46.5v762q0 27 19.5 46.5t46.5 19.5h608q27 0 46.5 -19.5t19.5 -46.5v-646q0 -9 -6.5 -15.5
t-15.5 -6.5t-15.5 6.5t-6.5 15.5v646q0 9 -6.5 15.5t-15.5 6.5h-608q-9 0 -15.5 -6.5t-6.5 -15.5v-762q0 -9 6.5 -15.5t15.5 -6.5h495q9 0 15.5 -6.5t6.5 -15.5t-6.5 -15.5t-15.5 -6.5z" />
    <glyph glyph-name="uniE623" unicode="&#xe623;" 
d="M757 774h-454h-7q-4 0 -15.5 -4t-20 -10t-15.5 -20t-7 -33v-814q1 -1 0 -7t2 -16.5t8.5 -20t19 -16.5t32.5 -7h460h8q4 0 14.5 3.5t19 9.5t15.5 19.5t7 31.5v817v7q-1 7 -4 16.5t-9.5 19.5t-20.5 17t-33 7zM465 741h130v-32h-130v32zM416 741q7 0 11.5 -4.5t4.5 -11.5
t-4.5 -11.5t-11.5 -4.5t-11.5 4.5t-4.5 11.5t4.5 11.5t11.5 4.5zM530 -109q-13 0 -22.5 9.5t-9.5 23t9.5 23.5t23 10t23 -10t9.5 -23.5t-9.5 -23t-23.5 -9.5zM760 22h-459v654h459v-654zM760 22z" />
    <glyph glyph-name="uniE624" unicode="&#xe624;" 
d="M715 337l-204 -387l-202 387l203 -36zM736 431.5q0 -92.5 -65.5 -158t-158.5 -65.5q-78 0 -138.5 48t-78.5 122q-7 26 -7 54q0 92 65.5 157.5t158.5 65.5t158.5 -65.5t65.5 -158zM512 570q-54 0 -91.5 -38t-37.5 -91.5t37.5 -91.5t91.5 -38t91.5 38t37.5 91.5t-37.5 91.5
t-91.5 38zM715 337l-204 -387l-202 387l203 -36zM736 431.5q0 -92.5 -65.5 -158t-158.5 -65.5q-78 0 -138.5 48t-78.5 122q-7 26 -7 54q0 92 65.5 157.5t158.5 65.5t158.5 -65.5t65.5 -158zM512 570q-54 0 -91.5 -38t-37.5 -91.5t37.5 -91.5t91.5 -38t91.5 38t37.5 91.5
t-37.5 91.5t-91.5 38z" />
    <glyph glyph-name="uniE625" unicode="&#xe625;" 
d="M383 -148h-3q-121 11 -201.5 62t-80.5 116q0 41 38 74.5t93.5 54t123.5 30.5v13q-34 25 -56 60t-32.5 78t-14.5 83t-4 92q0 109 61 171t169 62q106 0 163 -60t57 -173q0 -52 -16.5 -114t-45.5 -116q-6 -12 -19 -15.5t-24.5 2.5t-15.5 18.5t2 24.5q25 47 40 101.5t15 98.5
q0 169 -156 169q-166 0 -166 -169q0 -47 3 -82.5t12 -73.5t28.5 -66.5t48.5 -47.5q14 -9 14 -27v-57q0 -12 -8 -21.5t-20 -10.5q-97 -10 -161.5 -41.5t-64.5 -57.5q0 -33 63.5 -69.5t159.5 -44.5q14 -1 22.5 -11.5t7.5 -23.5q-1 -12 -10.5 -20.5t-21.5 -8.5zM769 44h-128
q-14 0 -23 9.5t-9 22.5t9 22.5t23 9.5h128q13 0 22.5 -9.5t9.5 -22.5t-9.5 -22.5t-22.5 -9.5zM705 -55h-64q-14 0 -23 9t-9 22.5t9 23t23 9.5h64q13 0 22.5 -9.5t9.5 -23t-9.5 -22.5t-22.5 -9zM833 -151h-256q-40 0 -68 28t-28 68v163q0 40 28 68t68 28h256q39 0 67.5 -28
t28.5 -68v-163q0 -40 -28.5 -68t-67.5 -28zM577 140q-13 0 -22.5 -9.5t-9.5 -22.5v-163q0 -14 9.5 -23t22.5 -9h256q13 0 22.5 9t9.5 23v163q0 13 -9.5 22.5t-22.5 9.5h-256z" />
    <glyph glyph-name="uniE626" unicode="&#xe626;" 
d="M819 -76h-614q-28 0 -48 20t-20 49v614q0 28 20 48t48 20h341h46h22q10 0 16.5 -6.5t6.5 -16t-6.5 -16t-16.5 -6.5h-22h-46h-318q-19 0 -32.5 -13.5t-13.5 -32.5v-569q0 -19 13.5 -32t32.5 -13h568q19 0 32.5 13t13.5 32v364v42v4q0 9 6.5 16t16 7t16 -7t6.5 -16v-46
v-386q0 -29 -20 -49t-48 -20zM448 226q-7 -7 -16.5 -7t-16 6.5t-6.5 16t6 16.5l409 411q7 7 16.5 7t16 -7t6.5 -16t-6 -16z" />
    <glyph glyph-name="uniE627" unicode="&#xe627;" 
d="M723 -11q0 -11 -7.5 -18.5t-18.5 -7.5h-570q-10 0 -17.5 7.5t-7.5 18.5v339h253q31 0 53 22t22 53v279h267q11 0 18.5 -7.5t7.5 -17.5v-207l36 41v166q0 25 -18 43t-44 18h-284q-24 1 -49.5 -6.5t-43 -18t-34.5 -24.5t-23 -20.5t-10 -10.5q-98 -114 -146 -161
q-20 -20 -30.5 -51.5t-11 -49t0.5 -30.5v-357q0 -25 18 -43t43 -18h570q26 0 44 18t18 43v226l-36 -41v-185zM413 700zM132 451q50 49 149 164q5 6 15.5 16.5t40 28.5t57.5 22v-279q0 -16 -11.5 -27.5t-27.5 -11.5h-253q1 59 30 87zM85 346zM518 150l-2 -3l-1 -1
q-5 -21 -11 -44q-10 -48 -2 -56q4 -2 9 -2q18 0 87 33l2 1l323 389l-84 70zM887 464l-303 -365l-2 -1l-43 37v1l303 365zM955 541l-50 41q-9 7 -15 -1l-41 -28q-6 -7 2 -14l73 -59q8 -7 15 0l18 46q6 8 -2 15z" />
    <glyph glyph-name="uniE628" unicode="&#xe628;" 
d="M823 596h-622q-33 0 -57 -24t-24 -58v-428q0 -34 24 -58t57 -24h622q33 0 57 24t24 58v428q0 34 -24 58t-57 24zM853 86q0 -13 -9 -22t-21 -9h-622q-12 0 -21 9t-9 22v428q0 13 9 22t21 9h622q12 0 21 -9t9 -22v-428zM759 469l-240 -180l-241 180q-8 7 -18.5 5.5t-17 -10
t-5 -19t10.5 -16.5l256 -192q0 -1 1 -2h2v-1h2v-1h2h1v-1h1h2h1h1h2v0v0h2h1h1h2h1v1h1h2v1h1l1 1h1l2 2l256 192q9 6 10.5 16.5t-5 19t-17 10t-19.5 -5.5z" />
    <glyph glyph-name="uniE629" unicode="&#xe629;" 
d="M880 620h-736q-33 0 -56.5 -23.5t-23.5 -56.5v-480q0 -33 23.5 -56.5t56.5 -23.5h736q33 0 56.5 23.5t23.5 56.5v480q0 33 -23.5 56.5t-56.5 23.5zM928 60q0 -20 -14 -34t-34 -14h-736q-20 0 -34 14t-14 34v480q0 20 14 34t34 14h736q20 0 34 -14t14 -34v-480zM807 454
l-295 -217l-295 217q-12 10 -21.5 -3t3.5 -22l304 -224q0 -1 1 -1q1 -1 2 -1q3 -2 6 -2v0q3 0 6 2q1 0 2 1q1 0 1 1l304 224q13 9 4 22q-4 5 -10.5 6t-11.5 -3z" />
    <glyph glyph-name="uniE62A" unicode="&#xe62a;" 
d="M293 -162q-51 0 -86.5 36.5t-35.5 88.5v674l-25 -25h732l-25 25v-674q0 -52 -35.5 -88.5t-86.5 -36.5h-438zM902 -37v674v25h-24h-732h-24v-25v-674q0 -72 50 -123.5t121 -51.5h438q71 0 121 51.5t50 123.5zM366 662l24 -25v75q0 22 14 36t35 14h146q21 0 35 -14t14 -36
v-75l24 25h-292zM683 662v50q0 42 -28.5 71t-69.5 29h-146q-41 0 -69.5 -29t-28.5 -71v-50h-341v-50h1024v50h-341zM488 38h48v424h-48v-424zM293 88h48v324h-48v-324zM658 88h49v324h-49v-324z" />
    <glyph glyph-name="uniE62B" unicode="&#xe62b;" 
d="M437 332h278q8 0 14.5 7t6.5 17t-6.5 17t-14.5 7h-278q-8 0 -14.5 -7t-6.5 -17t6.5 -17t14.5 -7zM736 620h-320q-36 0 -66 -23.5t-30 -56.5v-480q0 -15 -14.5 -23.5t-33.5 -8.5q-32 0 -32 32v304q0 13 -2 21t-6.5 11t-8 4t-9.5 1q-8 0 -11.5 -1.5t-7 -10t-3.5 -25.5v-300
q0 -35 23 -59.5t57 -24.5q36 0 66 23.5t30 56.5v480q0 15 14.5 23.5t33.5 8.5h320q19 0 33.5 -8.5t14.5 -23.5v-480q0 -15 -14.5 -23.5t-33.5 -8.5l-317 -4q-9 0 -15.5 -6.5t-6.5 -15.5t6.5 -15.5t15.5 -6.5h325q35 0 61.5 23t26.5 57v480q0 33 -30 56.5t-66 23.5zM437 236
h278q8 0 14.5 7t6.5 17t-6.5 17t-14.5 7h-278q-8 0 -14.5 -7t-6.5 -17t6.5 -17t14.5 -7zM437 444h278q8 0 14.5 7t6.5 17t-6.5 17t-14.5 7h-278q-8 0 -14.5 -7t-6.5 -17t6.5 -17t14.5 -7zM437 124h278q8 0 14.5 7t6.5 17t-6.5 17t-14.5 7h-278q-8 0 -14.5 -7t-6.5 -17
t6.5 -17t14.5 -7z" />
    <glyph glyph-name="uniE62C" unicode="&#xe62c;" 
d="M701 665.5q-78 78.5 -188.5 78.5t-189.5 -78q-78 -79 -78 -189q0 -43 34.5 -121.5t71 -141t93.5 -154t68 -110.5q11 19 68 110.5t93.5 154t71 141t34.5 121.5q0 110 -78 188.5zM597 392q-35 -35 -85 -35t-85 35t-35 84.5t35 85.5q36 35 85.5 35t84.5 -35.5t35 -85
t-35 -84.5z" />
    <glyph glyph-name="uniE62D" unicode="&#xe62d;" 
d="M955 -107q-28 -27 -65 9l-208 205q-2 -1 12 11t28.5 24.5t15.5 12.5l208 -197q37 -36 9 -65zM469 53q129 0 220.5 91.5t91.5 221t-91.5 221t-220.5 91.5t-220.5 -91.5t-91.5 -221t91.5 -221t220.5 -91.5zM469 -19q-105 0 -193.5 51.5t-140 140t-51.5 193t51.5 193
t140 140t193 51.5t193.5 -51.5t140.5 -140t51.5 -193t-51.5 -193t-140.5 -140t-193 -51.5v0z" />
    <glyph glyph-name="uniE62E" unicode="&#xe62e;" 
d="M905 213q-56 56 -135.5 56t-135.5 -56t-56 -134q0 -79 56 -135t136 -56t135.5 56t55.5 135q0 78 -56 134zM768 -45q-19 -15 -37 0l-81 80q-12 10 -7.5 24t17.5 17.5t26 -6.5l63 -62l122 120q8 9 18.5 8.5t17.5 -8.5q9 -6 9 -17t-9 -18zM814 499h-255q-9 0 -14 -5.5
t-5 -13.5q0 -7 5.5 -13t13.5 -6h255q8 0 13.5 5.5t5.5 13.5q0 19 -19 19zM814 404h-255q-8 0 -13.5 -5.5t-5.5 -13.5t5 -13.5t14 -5.5h255q11 0 16 9.5t0 19t-16 9.5zM628 309h-69q-8 0 -13.5 -5.5t-5.5 -14.5q0 -7 5.5 -13t13.5 -6h69q11 0 16 10t0 19.5t-16 9.5zM288 248
q-2 -2 -7 -4l-7 -4l-8 -2l-8 -3q-22 -6 -33 -10q-38 -13 -42 -42q-5 -33 -2 -52q1 -17 7 -23q7 -7 77 -15l20 -2l20 -2l38 -2q13 -1 33 -1h10h11q8 0 12 1l41 2q15 1 41 5q13 0 22 3v135l-7 2q-5 2 -14 4.5t-13 4.5q-14 5 -21 12q-1 2 -5.5 6.5t-5.5 8.5q-4 7 -4 15
q-1 5 1 14q1 5 2 8.5t3.5 7t4 4.5t6 4.5t7.5 5.5q0 1 1 2.5t3 3.5l3 3q4 12 5 13q4 10 5 15q4 2 9 6q9 8 11 25v14l-3 8q-1 2 -3 4t-2 3q0 20 -3 39q-2 14 -8 36q-6 17 -18 34q-21 25 -63 34q-14 3 -28 3q-4 0 -11.5 -0.5t-11.5 -0.5q-8 -1 -24 -7l-23 -13l-13 -13l-4 -4
l-4 -5q-16 -23 -22 -66q-2 -24 -2 -37q-4 -4 -6 -10q-6 -14 -1 -27t13 -19q2 -2 6 -4q2 -3 5 -15l6 -13q1 -4 6 -9l15 -13q6 -6 8 -18q1 -5 1 -14q0 -20 -26 -36zM144 46q-19 3 -31.5 17t-12.5 32v480q0 20 14.5 34t34.5 14h725q22 0 36.5 -14t14.5 -34v-298l8 -6l6 -6l8 -6
l12 -13v346q0 27 -20 45.5t-49 18.5h-758q-27 0 -46.5 -18.5t-19.5 -45.5v-513q0 -26 17 -44.5t42 -21.5h400q-6 22 -7 33h-374z" />
    <glyph glyph-name="uniE62F" unicode="&#xe62f;" horiz-adv-x="1025" 
d="M819 573q-25 0 -46.5 30t-21.5 55v86l171 -171h-103zM679 -144h-539q-28 0 -50 19.5t-22 43.5v626q0 24 20.5 42.5t48.5 18.5l39 1v-563q0 -49 43.5 -87t100.5 -38h431q0 -24 -22 -43.5t-50 -19.5v0zM880 -7h-566q-29 0 -52 19t-23 43v626q0 24 23 43.5t52 19.5h369v-137
q0 -21 4 -37.5t10 -27.5t18 -18t21.5 -11t26.5 -6t27 -2h29h137v-450q0 -24 -23 -43t-53 -19zM329 812q-58 0 -102 -39t-44 -89l-42 -1q-58 0 -99.5 -38.5t-41.5 -88.5v-640q0 -50 44.5 -89t101.5 -39h549q57 0 103 40t55 97h35q61 0 98.5 34t37.5 85v511l-256 257h-439z
M768 363h-329q-15 0 -26 -9t-11 -22.5t11 -23t26 -9.5h329q15 0 26 9.5t11 23t-11 22.5t-26 9v0zM782 198h-335q-16 0 -26.5 -10t-10.5 -24.5t10.5 -24.5t26.5 -10h335q15 0 26 10t11 24.5t-11 24.5t-26 10v0zM782 198z" />
    <glyph glyph-name="uniE630" unicode="&#xe630;" horiz-adv-x="1025" 
d="M320 236h-192q-53 0 -90.5 -37.5t-37.5 -90.5v-192q0 -53 37.5 -90.5t90.5 -37.5h192q53 0 90.5 37.5t37.5 90.5v192q0 53 -37.5 90.5t-90.5 37.5zM384 -84q0 -27 -18.5 -45.5t-45.5 -18.5h-192q-26 0 -45 18.5t-19 45.5v192q0 27 18.5 45.5t45.5 18.5h192
q27 0 45.5 -18.5t18.5 -45.5v-192zM896 812h-192q-53 0 -90.5 -37.5t-37.5 -90.5v-192q0 -53 37.5 -90.5t90.5 -37.5h192q53 0 90.5 37.5t37.5 90.5v192q0 53 -37.5 90.5t-90.5 37.5zM960 492q0 -27 -18.5 -45.5t-45.5 -18.5h-192q-26 0 -45 18.5t-19 45.5v192
q0 27 18.5 45.5t45.5 18.5h192q27 0 45.5 -18.5t18.5 -45.5v-192zM320 812h-192q-53 0 -90.5 -37.5t-37.5 -90.5v-192q0 -53 37.5 -90.5t90.5 -37.5h192q53 0 90.5 37.5t37.5 90.5v192q0 53 -37.5 90.5t-90.5 37.5zM384 492q0 -27 -18.5 -45.5t-45.5 -18.5h-192
q-26 0 -45 18.5t-19 45.5v192q0 27 18.5 45.5t45.5 18.5h192q27 0 45.5 -18.5t18.5 -45.5v-192zM896 236h-192q-53 0 -90.5 -37.5t-37.5 -90.5v-192q0 -53 37.5 -90.5t91.5 -37.5h191q53 0 90.5 37.5t37.5 90.5v192q0 53 -37.5 90.5t-90.5 37.5zM960 -84q0 -27 -18.5 -45.5
t-45.5 -18.5h-192q-26 0 -45 18.5t-19 45.5v192q0 27 18.5 45.5t45.5 18.5h192q27 0 45.5 -18.5t18.5 -45.5v-192z" />
    <glyph glyph-name="uniE631" unicode="&#xe631;" 
d="M288 348q19 -8 39 -8q40 0 68 28t28 68t-28 68t-67.5 28t-68 -28t-28.5 -68q0 -23 11 -43q-1 -2 -5 -6q-42 -50 -77 -109q-33 -56 -57 -115q-41 -98 -56 -204q-8 -58 -8 -99v-1q1 -13 10.5 -22t22.5 -9t22.5 10t8.5 23q-1 131 59 278q22 55 53 106q32 55 71 101q1 1 1 2
h1zM327.5 724q-119.5 0 -204 -84.5t-84.5 -203.5q0 -43 13 -84q4 -13 15.5 -19t24 -2.5t19 15.5t2.5 25q-10 31 -10 65q0 93 66 158.5t158.5 65.5t158 -65.5t65.5 -158.5t-65.5 -158.5t-158.5 -65.5q-31 0 -60 8q-13 4 -24.5 -2.5t-15 -19.5t3 -24.5t19.5 -15.5
q38 -10 77 -10q120 0 204 84.5t84 203.5t-84 203.5t-203.5 84.5zM775 516q-46 0 -79 33t-33 79t33 79t79.5 33t79 -33t32.5 -79q0 -30 -15 -56q-8 -14 6 -22t22 6q19 33 19 72q0 60 -42 102t-101.5 42t-102 -42t-42.5 -102t42.5 -102t101.5 -42q7 0 11.5 4.5t4.5 11.5
t-4.5 11.5t-11.5 4.5zM972 450q-9 2 -26 11q-36 21 -73 62q-29 32 -51 62q17 18 17 43q0 26 -18.5 45t-45 19t-45.5 -19t-19 -45t19 -45t45 -19q11 0 20 3q24 -32 54 -65q66 -72 116 -84q7 -1 12.5 2.5t7 10t-2 12t-10.5 7.5z" />
    <glyph glyph-name="uniE632" unicode="&#xe632;" 
d="M973 422l-299 41l-133 273q-9 18 -29 18t-29 -18l-133 -273l-299 -41q-20 -3 -26 -22t8 -32l219 -210l-54 -299q-3 -19 13 -31t34 -2l267 140l267 -140q18 -10 34 2t13 31l-51 299l216 210q14 13 8 32t-26 22z" />
    <glyph glyph-name="uniE633" unicode="&#xe633;" 
d="M853 -87h-660q-37 0 -64 26.5t-27 64.5v569q0 38 27 64.5t64 26.5h660q38 0 64.5 -26.5t26.5 -64.5v-569q0 -38 -26.5 -64.5t-64.5 -26.5zM655 318l-174 110q-19 12 -39.5 2t-20.5 -31v-221q0 -21 20.5 -31t39.5 2l174 110q16 11 16 29.5t-16 29.5z" />
    <glyph glyph-name="uniE634" unicode="&#xe634;" 
d="M901 140q-12 5 -29.5 -1.5t-22.5 -17.5q-39 -99 -126 -158t-193 -59q-93 0 -172.5 46t-125.5 125.5t-46 173t46 172.5t125.5 125.5t172.5 46.5q98 0 181 -52q1 -1 3 -2l-90 -32q-11 -4 -17.5 -19.5t-2.5 -27.5q4 -9 15 -16.5t20 -7.5t14 2l165 73q12 4 17.5 16t1.5 24
l-59 163q-5 15 -16.5 26t-27.5 8q-12 -2 -19.5 -15.5t-3.5 -26.5l33 -90q-101 60 -218 60q-115 0 -212.5 -56.5t-154.5 -154.5t-57 -213t57 -213t154.5 -155t212.5 -57q131 0 238 73t156 195q4 12 -2 26t-17 19zM901 140z" />
    <glyph glyph-name="uniE635" unicode="&#xe635;" 
d="M741 242q-21 -81 -77.5 -133t-128.5 -52q-89 0 -151.5 76.5t-63.5 184.5h430h214q0 117 -58 216t-157 156.5t-216 57.5t-216 -58t-157 -157t-58 -216t58 -216.5t157 -157t216 -57.5q158 0 278 101.5t147 254.5h-217zM535 580q72 0 129 -52t77 -133h-411q20 81 76.5 133
t128.5 52zM246 -136q-79 53 -107 155t-0.5 226t105.5 239q59 87 135 150t153 93.5t153.5 27.5t135.5 -43q61 -41 91.5 -113.5t28.5 -162.5q10 108 -21 195t-102 134q-62 43 -144.5 45t-166 -32.5t-166.5 -104.5t-147 -165q-86 -127 -117.5 -262t-2.5 -245.5t112 -167.5
q92 -60 212 -40t237 109q-103 -68 -205.5 -79t-183.5 41z" />
    <glyph glyph-name="uniE636" unicode="&#xe636;" 
d="M510 697q80 0 136 -56.5t56 -135.5v-175q0 -79 -56 -135t-136 -56q-79 0 -135 56l-1 2q-55 56 -55 133v175q0 79 56 135q56 57 135 57zM380 436h261v69q0 54 -38 92q-39 39 -92.5 39t-91.5 -39q-39 -37 -39 -92v-69zM641 399h-261v-69q0 -53 37 -91l2 -1q37 -38 91.5 -38
t92.5 38v0q38 39 38 92v69zM330 -96h179h1h2h180q12 0 21 9t9 21.5t-9 21.5t-21 9h-151v73q103 11 177 85q42 42 64 95t22 112v88q0 13 -9 21.5t-21.5 8.5t-21.5 -8.5t-9 -21.5v-88q0 -46 -18 -88q-17 -44 -50 -76q-68 -68 -165 -68q-45 0 -88 17q-43 19 -75.5 51t-50.5 76
q-18 41 -18 88v88q0 13 -9 21.5t-21.5 8.5t-21.5 -8.5t-9 -21.5v-88q0 -57 23 -112q22 -53 63 -95q43 -42 96 -64q39 -16 81 -20v-74h-150q-13 0 -22 -9t-9 -21.5t9 -21.5t22 -9z" />
    <glyph glyph-name="uniE637" unicode="&#xe637;" 
d="M883 663h-43v13q0 29 -20 49.5t-49 20.5h-1q-29 0 -49 -20.5t-20 -49.5v-13h-384v13q0 29 -20.5 49.5t-48.5 20.5h-1q-29 0 -49 -20.5t-20 -49.5v-13h-43q-29 0 -49.5 -20t-20.5 -49v-666q0 -29 20.5 -49t49.5 -20h748q29 0 49.5 20t20.5 49v666q0 29 -20.5 49t-49.5 20z
M728 676q0 18 12.5 30t29.5 12h1q17 0 29.5 -12t12.5 -30v-124q0 -17 -12.5 -29t-29.5 -12h-1q-17 0 -29.5 12t-12.5 29v124zM205 676q0 18 12.5 30t29.5 12h1q17 0 29 -12t12 -30v-124q0 -17 -12 -29t-29 -12h-1q-17 0 -29.5 12t-12.5 29v124zM883 -86h-748q-6 0 -10 4.5
t-4 9.5v490h776v-490q0 -5 -4 -9.5t-10 -4.5zM223 318h128v-63h-128v63zM446 318h127v-63h-127v63zM668 318h125v-63h-125v63zM223 190h128v-62h-128v62zM446 190h127v-62h-127v62zM668 190h125v-62h-125v62zM223 65h128v-65h-128v65zM446 65h127v-65h-127v65zM668 65h125
v-65h-125v65zM668 65z" />
    <glyph glyph-name="uniE638" unicode="&#xe638;" 
d="M778 778h-530q-52 0 -88.5 -36.5t-36.5 -87.5v-718q0 -52 36.5 -88.5t88.5 -36.5h312h62h31v1q51 6 106.5 43t96 93.5t46.5 112.5h1v593q0 51 -36.5 87.5t-88.5 36.5zM638 -126h-16v124v32q0 12 9.5 21.5t21.5 9.5h32h154q-11 -59 -80 -123.5t-121 -63.5zM841 123h-234
v-2q-36 -9 -45 -45h-2v-15v-187h-312q-26 0 -44.5 18t-18.5 44v718q0 25 18.5 43.5t44.5 18.5h530q26 0 44.5 -18.5t18.5 -43.5v-531zM443 279h-125q-10 0 -16.5 -7t-6.5 -16.5t6.5 -16.5t16.5 -7h125q9 0 16 7t7 16.5t-7 16.5t-16 7zM536 279h-15q-10 0 -17 -7t-7 -16.5
t7 -16.5t17 -7h15q10 0 17 7t7 16.5t-7 16.5t-17 7zM700 435h-374q-13 0 -22 -9t-9 -22t9 -22t22 -9h374q13 0 22 9t9 22t-9 22t-22 9zM700 591h-374q-13 0 -22 -9t-9 -22t9 -22t22 -9h374q13 0 22 9t9 22t-9 22t-22 9z" />
    <glyph glyph-name="uniE639" unicode="&#xe639;" 
d="M512 811q-104 0 -198.5 -40.5t-163 -109t-109 -163t-40.5 -198.5t40.5 -198.5t109 -163t163 -109t198.5 -40.5t198.5 40.5t163 109t109 163t40.5 198.5t-40.5 198.5t-109 163t-163 109t-198.5 40.5zM684 274l-1 -1l-255 -255q-11 -10 -26 -10t-25.5 10.5t-10.5 25.5
t11 26l229 230l-229 230q-11 11 -11 26t10.5 25.5t26 10.5t25.5 -11l255 -254v-1h1q11 -11 11 -26t-11 -26z" />
    <glyph glyph-name="uniE63A" unicode="&#xe63a;" 
d="M381 692q9 0 15 -6v0q14 -15 35 -31q45 -33 83 -33t83 33q20 14 35 30v0q5 6 15 6q3 0 5 -1l108 -62q10 -7 5 -19v0q-13 -31 -13 -60q0 -64 44.5 -109.5t107.5 -45.5h2q3 -4 4 -12q9 -47 9 -82q0 -36 -9 -83q-1 -7 -4 -11h-2q-63 0 -107.5 -46t-44.5 -110q0 -28 13 -59
v-1q5 -11 -5 -19l-109 -62q-3 -1 -6 -1q-9 0 -14 6v0q-11 12 -24.5 24t-42.5 28t-54 16q-27 0 -58 -18t-43 -29.5t-20 -19.5q-5 -6 -14 -6q-3 0 -5 1l-106 61q-10 8 -5 19q13 30 13 60q0 64 -44.5 110t-107.5 46h-2q-3 4 -4 11q-9 47 -9 83t9 82v0q1 8 4 12h2
q63 0 107.5 45.5t44.5 109.5q0 30 -13 60v0q-5 12 5 19l111 63q3 1 6 1zM381 731q-12 0 -22 -5h-1l-115 -65l-1 -1q-16 -11 -21 -30t2 -36q10 -23 10 -45q0 -48 -33 -82t-80 -34h-4h-1q-14 0 -25 -12t-14 -32q-10 -50 -10 -89t10 -90q3 -20 14 -31.5t25 -11.5h1h4
q47 0 80 -34.5t33 -82.5q0 -22 -9 -44q-8 -18 -3 -37t21 -30l1 -1l109 -62l1 -1q10 -4 22 -4q26 0 43 18q15 17 42 35.5t50 18.5q18 0 42.5 -15t33.5 -24l16 -16q17 -19 43 -19q12 0 22 5h1l113 64l1 1q16 11 21 30t-2 37q-10 24 -10 44q0 48 33 82.5t80 34.5h4h1
q14 0 25 11.5t14 31.5q10 50 10 90q0 39 -10 89q-3 20 -14 32t-25 12h-1h-4q-47 0 -80 34t-33 82q0 21 9 45q8 17 3 36t-21 30l-1 1l-111 63l-1 1q-11 5 -22 5q-26 0 -43 -18q-6 -6 -15 -14.5t-33 -22.5t-42 -14t-41.5 14t-33 23t-15.5 15q-17 18 -43 18zM512 416
q48 0 82 -34t34 -82t-34 -82t-82 -34t-82 34t-34 82t34 82t82 34zM512 455q-64 0 -109.5 -45.5t-45.5 -109.5t45.5 -109.5t109.5 -45.5t109.5 45.5t45.5 109.5t-45.5 109.5t-109.5 45.5z" />
    <glyph glyph-name="uniE63B" unicode="&#xe63b;" 
d="M512 799q104 0 197.5 -39t164.5 -110l1 -3q70 -70 109 -163t39 -196q0 -80 -25 -158q-25 -75 -65 -132v-183q0 -16 -11.5 -27.5t-28.5 -11.5h-381q-104 0 -197 39.5t-165 110.5q-70 70 -109.5 163.5t-39.5 197.5q0 105 39 198t110 164t164 110.5t198 39.5zM257 390
q-10 0 -17 7t-7 17t7 17t17 7h510q10 0 16.5 -7t6.5 -17t-6.5 -17t-16.5 -7h-510zM257 264q-10 0 -17 7t-7 17t7 17t17 7h510q10 0 16.5 -7t6.5 -17t-6.5 -17t-16.5 -7h-510zM257 138q-10 0 -17 7t-7 16.5t7 17t17 7.5h510q10 0 16.5 -7.5t6.5 -16.5q0 -11 -6.5 -17.5
t-16.5 -6.5h-510zM818 594q-60 60 -139 93.5t-167 33.5t-167 -33.5t-139 -93.5v0q-61 -60 -94.5 -139.5t-33.5 -167.5t34 -167t94 -138q60 -60 139 -94t167 -34h342v155q0 13 8 23q42 57 61 121q22 66 22 134q0 88 -33 166.5t-92 137.5z" />
    <glyph glyph-name="uniE63C" unicode="&#xe63c;" 
d="M361.5 -3q-28.5 0 -49 -20t-20.5 -48.5t20.5 -48.5t49 -20t48.5 20t20 48.5t-20 48.5t-48.5 20zM956 552q-14 26 -45 32q0 1 -4 1h-693l-13 91q-9 37 -24.5 50t-37.5 14h-1l-2 1h-55q-9 0 -15 -5.5t-6 -14t6 -14t15 -5.5h53q21 0 31 -36l1 -2v-1l83 -552q0 -2 1 -4
q6 -16 22 -34q31 -36 78 -36h498q8 0 14 6t6 14t-6 14t-14 6h-498q-41 0 -61 47l-15 89h526q22 0 41 9t29.5 19.5t19.5 24.5t11.5 19.5t3.5 9.5l54 202q11 31 -3 55zM786.5 -3q-28.5 0 -48.5 -20t-20 -48.5t20 -48.5t48.5 -20t49 20t20.5 48.5t-20.5 48.5t-49 20z" />
    <glyph glyph-name="uniE63D" unicode="&#xe63d;" 
d="M862 749h-419h-2h-1l-2 -1h-1h-1h-2l-1 -1h-1l-1 -1h-1q-1 -1 -2 -1v-1q-1 0 -2 -0.5t-1 -1t-1 -0.5l-1 -1v-1l-200 -208v-1l-1 -1l-2 -2v-2h-2v-2t-0.5 -1.5t-0.5 -1t-0.5 -1t-0.5 -1.5v-1v-2q0 -1 -0.5 -1.5t-0.5 -1.5v-1v-101h-53q-23 0 -41 -14t-18 -33v-452
q0 -27 16.5 -44t42.5 -17h101q3 0 7 1h5h555h2h2h28q24 0 41.5 17t17.5 42v779q0 24 -17.5 41.5t-41.5 17.5zM162 -93q-4 0 -4 5v443q2 1 4 1h53v-445q0 -2 1 -4h-54zM429 666v-124q0 -10 -5 -16.5t-13 -6.5h-123zM866 -89q0 -4 -4 -4h-28h-2h-2h-555q-4 0 -4 4v552h140
q31 0 52.5 23t21.5 56v151h377q4 0 4 -3v-779zM715 439h-274q-11 0 -19.5 -8t-8.5 -19.5t8.5 -20t19.5 -8.5h274q11 0 19.5 8.5t8.5 20t-8.5 19.5t-19.5 8zM715 275h-274q-11 0 -19.5 -8t-8.5 -19.5t8.5 -20t19.5 -8.5h274q11 0 19.5 8.5t8.5 20t-8.5 19.5t-19.5 8zM715 111
h-274q-11 0 -19.5 -8t-8.5 -19.5t8.5 -20t19.5 -8.5h274q11 0 19.5 8.5t8.5 20t-8.5 19.5t-19.5 8z" />
    <glyph glyph-name="uniE63E" unicode="&#xe63e;" 
d="M800 -64h-576q-40 0 -68 28t-28 68v640q0 40 28 68t68 28h448q13 0 22.5 -9.5t9.5 -22.5t-9.5 -22.5t-22.5 -9.5h-448q-13 0 -22.5 -9.5t-9.5 -22.5v-640q0 -13 9.5 -22.5t22.5 -9.5h576q13 0 22.5 9.5t9.5 22.5v512q0 13 9.5 22.5t22.5 9.5t22.5 -9.5t9.5 -22.5v-512
q0 -40 -28 -68t-68 -28zM512 353q-14 0 -23 9.5t-9 23t9 22.5l418 414q10 9 23 9t22.5 -9.5t9.5 -22.5t-10 -23l-418 -413q-9 -10 -22 -10z" />
    <glyph glyph-name="uniE63F" unicode="&#xe63f;" horiz-adv-x="1053" 
d="M1003 -130h-954q-17 0 -29.5 -12t-12.5 -29.5t12.5 -29.5t29.5 -12h954q18 0 30 12t12 29.5t-12 29.5t-30 12zM465 124q8 -8 19.5 -8t19.5 8l428 428q8 8 8 19.5t-8 19.5l-2 2l54 53q8 8 8 19.5t-8 19.5l-101 101q-8 8 -19.5 8t-19.5 -8l-54 -53l-1 1q-8 8 -19.5 8
t-19.5 -8l-428 -428q-8 -8 -8 -19.5t8 -19.5zM129 -93l277 140q10 5 11.5 14.5t-6.5 17.5l-126 126q-8 8 -17 6.5t-14 -12.5l-137 -279q-5 -11 -1.5 -14.5t13.5 1.5z" />
    <glyph glyph-name="uniE640" unicode="&#xe640;" 
d="M588 -148q-50 0 -85 36l-404 403q-39 40 -35 95l4 43q1 12 10.5 20.5t22.5 7.5t21.5 -10.5t7.5 -22.5l-3 -43q-2 -27 17 -46l403 -403q17 -17 41 -17t41 17l251 250q17 17 17 41.5t-17 41.5l-403 403q-19 19 -46 17l-233 -18q-20 -1 -36 -17t-17 -36q-1 -13 -11 -21.5
t-23 -7.5t-21.5 10.5t-7.5 22.5q4 44 36 76t76 36l232 18q55 4 95 -36l403 -403q35 -35 35 -85.5t-35 -85.5l-250 -250q-35 -36 -86 -36zM353.5 341q-51.5 0 -88.5 36.5t-37 88t37 88t88.5 36.5t88 -36.5t36.5 -88t-36.5 -88t-88 -36.5zM353 528q-26 0 -44 -18.5t-18 -44
t18 -44t44 -18.5t44.5 18.5t18.5 44t-18.5 44t-44.5 18.5z" />
    <glyph glyph-name="uniE641" unicode="&#xe641;" 
d="M914 727h-256q-44 0 -82 -19.5t-64 -53.5q-26 34 -64 53.5t-82 19.5h-256q-31 0 -52 -21.5t-21 -51.5v-677q0 -30 21 -51.5t52 -21.5h269q56 -55 133 -55t133 55h269q31 0 52 21.5t21 51.5v677q0 30 -21 51.5t-52 21.5zM914 -23h-284q-17 0 -28 -13q-36 -42 -90 -42
t-90 42q-11 13 -28 13h-284v677h256q45 0 77 -32.5t32 -77.5v-311q0 -15 11 -25.5t26 -10.5t26 10.5t11 25.5v311q0 45 32 77.5t77 32.5h256v-677z" />
    <glyph glyph-name="uniE642" unicode="&#xe642;" horiz-adv-x="1025" 
d="M981 438v-170l36 -36l-74 -77l-75 75l51 47v134q-311 -129 -337 -140q-36 -16 -66 -17t-66 13q-304 115 -391 156q-58 28 -58.5 47.5t60.5 43.5q56 21 195 73t183 68q34 14 50 19t38.5 4t47.5 -14q43 -18 196 -77t206 -81q22 -10 33.5 -18t14 -13.5t-2 -11.5t-10.5 -9.5
t-16 -8.5t-15 -7v0zM592 204q26 10 94.5 42t107.5 49v-268q-4 -4 -12 -11.5t-34.5 -26t-56.5 -32.5t-77.5 -25.5t-96.5 -11.5q-53 0 -103 11t-83 27t-58.5 31.5t-37.5 26.5l-11 11v250q28 -11 209 -73q41 -15 81.5 -16t77.5 16v0zM592 204z" />
    <glyph glyph-name="uniE643" unicode="&#xe643;" horiz-adv-x="1184" 
d="M610 229q79 38 126 112t47 164q0 127 -89.5 217t-217 90t-217.5 -90t-90 -217q0 -90 47.5 -164t125.5 -112q-135 -41 -224.5 -152t-100.5 -254q-2 -4 -2 -9q0 -11 7.5 -18.5t18.5 -7.5t18.5 7.5t7.5 18.5h1q7 105 62.5 193.5t147 139.5t198.5 51t198.5 -51t147.5 -139.5
t63 -193.5h1q0 -11 7.5 -18.5t18 -7.5t18 7.5t7.5 18.5q0 4 -2 9q-11 143 -100.5 254t-224.5 152zM220 505q0 106 75 181t181 75t181 -75t75 -181t-75 -181t-181 -75t-181 75t-75 181zM1165 -177q-10 143 -99.5 254t-224.5 152q78 38 125.5 112t47.5 164q0 127 -90 217
t-217 90q-19 0 -42 -3q36 -22 63 -49q99 -8 167 -81.5t68 -173.5t-67.5 -173t-166.5 -82q3 -7 3 -14q0 -1 -0.5 -2.5t-0.5 -2.5q37 -21 65 -44q132 -29 221 -132.5t98 -240.5h1q0 -11 7.5 -18.5t18 -7.5t18 7.5t7.5 18.5q0 4 -2 9zM1165 -177z" />
    <glyph glyph-name="uniE644" unicode="&#xe644;" 
d="M758 177q-37 -20 -102 -32t-143 -12t-143 12t-102 32q-93 38 -128 96q-18 -30 -18 -56q0 -53 52.5 -98t142.5 -71t196 -26t196 26t142.5 71t52.5 98q0 26 -18 56q-35 -58 -128 -96zM758 345q-37 -20 -102 -32t-143 -12t-143 12t-102 32q-93 38 -128 96q-18 -31 -18 -56
q0 -53 52.5 -98t142.5 -71.5t196 -26.5t196 26.5t142.5 71.5t52.5 98q0 25 -18 56q-35 -58 -128 -96zM236 414q115 -57 277 -57t277 57q54 27 83 62q31 37 31 76q0 14 -6 31q-23 71 -131.5 118t-253.5 47t-253.5 -47t-131.5 -117q-6 -17 -6 -32q0 -39 31 -76q29 -35 83 -62z
M758 10q-37 -20 -102 -32t-143 -12t-143 12t-102 32q-93 38 -128 95q-18 -30 -18 -55q0 -54 52.5 -99t142.5 -71t196 -26t196 26t142.5 71t52.5 99q0 25 -18 55q-35 -57 -128 -95z" />
    <glyph glyph-name="uniE645" unicode="&#xe645;" 
d="M330 840h-182q-57 0 -97 -39t-40 -94v-154q0 -55 40 -93.5t97 -38.5h182q57 0 97 38.5t40 93.5v154q0 55 -40.5 94t-96.5 39zM398 531q0 -18 -13 -31t-32 -13h-228q-19 0 -32 13t-13 31v198q0 19 13 31.5t32 12.5h228q19 0 32 -12.5t13 -31.5v-198zM330 355h-182
q-57 0 -97 -39t-40 -94v-154q0 -55 40 -93.5t97 -38.5h182q57 0 97 38.5t40 93.5v154q0 55 -40.5 94t-96.5 39zM398 46q0 -18 -13 -31t-32 -13h-228q-19 0 -32 13t-13 31v198q0 19 13 31.5t32 12.5h228q19 0 32 -12.5t13 -31.5v-198zM970 704h-430q-9 0 -16 6.5t-7 16.5v22
q0 10 7 16.5t16 6.5h430q9 0 15.5 -6.5t6.5 -16.5v-22q0 -10 -6.5 -16.5t-15.5 -6.5zM970 478h-430q-9 0 -16 6.5t-7 15.5v23q0 9 7 15.5t16 6.5h430q9 0 15.5 -6.5t6.5 -15.5v-23q0 -9 -6.5 -15.5t-15.5 -6.5zM970 229h-430q-9 0 -16 6.5t-7 15.5v23q0 9 7 15.5t16 6.5h430
q9 0 15.5 -6.5t6.5 -15.5v-23q0 -9 -6.5 -15.5t-15.5 -6.5zM970 2h-430q-9 0 -16 6.5t-7 16.5v22q0 10 7 16.5t16 6.5h430q9 0 15.5 -6.5t6.5 -16.5v-22q0 -10 -6.5 -16.5t-15.5 -6.5z" />
    <glyph glyph-name="uniE646" unicode="&#xe646;" 
d="M985 105l-439 444q-12 11 -28.5 11t-28.5 -11v-1h-1l-1 -1l-443 -439q-12 -12 -12 -28.5t11.5 -28.5t28 -12t28.5 12l417 413l412 -415q11 -12 27.5 -12t28.5 11.5t12 28.5t-12 28z" />
    <glyph glyph-name="uniE647" unicode="&#xe647;" 
d="M667 700q5 -3 23 -8.5t24 -12.5q21 -2 51.5 -24.5t39.5 -26.5q46 -50 64 -81q1 -1 3.5 -6.5t4.5 -8.5q35 -52 55 -117t7 -129q0 -1 1 -5.5t2 -6.5q-11 -137 -119 -270q-32 -39 -79 -72.5t-93 -49.5q-5 -2 -17 -4l-18 -3q-114 -33 -193 -16q-41 9 -80 26q-53 14 -105 60
q-63 55 -100 126q-3 5 -14 22.5t-16 30.5q-3 8 -8.5 25.5t-7.5 21.5q-5 16 0 24q-8 30 -9.5 63.5t-0.5 55t11 61t14 51.5l19 57q5 9 21 37.5t28 47.5t24 36q15 7 27 29q4 5 19 16t21 19q5 0 10 3t10 8t8 7q8 5 24 10t21 7q29 13 34 14q8 3 26 10t28 10q63 16 107 7
q5 -1 17 -5.5t20 -5.5q28 -3 62.5 -15t33.5 -18zM159 430q-34 -111 -28 -177q11 -133 80 -215q74 -87 163 -114q8 -2 23.5 -7.5t27 -9t21.5 -4.5q74 -12 157.5 14t140.5 72q59 46 100.5 116.5t55.5 154.5q13 82 -7.5 146.5t-64.5 132.5q-27 43 -93 89q-7 3 -29 13.5t-39 16
t-37 7.5h-20q-17 0 -25 3q-6 3 -13.5 11t-13 10t-18 3t-15.5 1q-5 1 -17.5 4t-17.5 3q-14 0 -54 -9q-27 -6 -77 -28q-46 -20 -70 -35q-50 -49 -81.5 -94.5t-48.5 -103.5zM406 36q-16 56 22.5 98.5t96.5 35.5q18 -3 41.5 -17t28.5 -29q3 -8 -0.5 -26t4.5 -25
q-5 -36 -30.5 -67t-61.5 -33q-21 0 -41 10t-32 21.5t-28 31.5zM556 86q-32 -40 -49 -64q21 5 34 23t15 41zM485 29q4 6 18 21t25.5 29t17.5 24q4 7 -4 13.5t-17 2.5q5 -20 -4 -34.5t-24.5 -28t-20.5 -25.5q2 1 4 -0.5t5 -1.5zM476 87q-7 1 -7 -3q1 0 1.5 -2t1.5 -2
q0 2 2.5 3.5t1.5 3.5zM500 121q-7 -2 -11.5 -12.5t-7.5 -12.5q6 1 9 4.5t6 10.5t4 10zM404 201q-2 5 -3.5 17.5t-3.5 17.5q5 47 10 151t13 159q-1 4 3 5.5t4 3.5q-13 63 21 70q22 5 68 -2q80 -12 98 -35q3 -2 -1 -5.5t-4 -6.5q2 -3 9 -8t9 -9q2 -89 -13 -254q0 -3 -1.5 -17
t-1.5 -20q0 -4 1 -12t0 -13t-6 -9q-1 0 -20 -3q-3 -10 -10 -18q-14 -1 -39 -6.5t-45 -10t-44.5 -4t-43.5 8.5zM479 278l-13 -14q-13 -14 -16 -24q0 -2 3 -2q2 4 14.5 17t11.5 23zM569 313q-1 5 0 13t0 10q-12 -5 -21 -14.5t-20 -23.5t-15 -20q-4 -4 -13 -11.5t-13 -13.5
t-4 -13q21 2 35.5 14.5t27 31.5t23.5 27zM563 255q1 4 1 11t1 12q-11 1 -21 -24q16 2 19 1zM457 276q5 7 19 22.5t21 25.5q9 7 16.5 14t20 20.5t14.5 16.5l8 7l8 9q3 3 6 9t4 11q-13 -10 -35 -32.5t-30 -30.5q-3 -3 -16 -14t-19 -17t-13 -17.5t-10 -23.5h6zM499 296
q-6 -2 -10 -6.5t-1 -9.5q1 2 6 6t5 10zM518 315q-8 -1 -9 -9q6 3 9 9zM548 345q-6 1 -10 -4t-1 -8q1 2 5.5 5.5t5.5 6.5zM458 341q20 25 65 67q5 10 24.5 29.5t22.5 36.5q-25 -20 -65.5 -64t-51.5 -55q-2 0 -1.5 -2.5t1.5 -5.5t0 -6h5zM460 385q7 7 18 20t21 23t21 17
q6 15 28.5 36t29.5 36q-13 -5 -24.5 -14.5t-25.5 -26t-21 -23.5q-4 -3 -13.5 -10.5t-14.5 -11.5q-1 -2 -6 -6.5t-6.5 -6.5t-5 -6.5t-4.5 -7.5t-2 -8t0 -11h5zM570 543q-1 7 4.5 14.5t3.5 13.5q-6 0 -9 -2.5t-5.5 -7t-3.5 -6.5q-9 -6 -19 -16t-24.5 -26.5t-19.5 -22.5
q-2 -2 -17.5 -15t-20 -23t0.5 -21l53 53q38 38 57 59zM497 520q-8 -5 -11.5 -7.5t-10 -8t-8.5 -10.5t0 -11q4 7 15 18.5t15 18.5zM520 581q-15 4 -25 0t-16 -15t-8.5 -20t-5.5 -24q40 31 55 59zM548 576q-10 1 -15 -10l-1 -2q-23 -21 -33 -40q23 15 49 52z" />
    <glyph glyph-name="uniE648" unicode="&#xe648;" 
d="M845 459q0 96 -44.5 172.5t-120 118t-166.5 42.5q-91 0 -168 -44.5t-122 -121.5t-45 -167q0 -129 87 -224q-112 -65 -179 -178.5t-67 -247.5h62q0 87 34 168q32 77 92 136q47 48 106 78q88 -65 198 -65q118 0 198 65q6 5 15.5 12.5t32.5 32.5t40.5 53.5t32 74.5t14.5 95z
M512 187q-55 0 -106 22q-48 20 -86 58q-37 37 -58 86q-21 51 -21 106t21 105q20 49 58 87q38 37 86 58q51 21 106 21t106 -21q48 -20 86 -58q37 -38 58 -87q21 -50 21 -105t-21 -106q-20 -48 -58 -86t-86 -58q-50 -22 -106 -22zM988 172q1 -4 2 -10q2 -6 2 -12t-3 -12
q-2 -6 -7 -12q-7 -6 -10 -9l-8 -8q-4 -4 -7 -6l-86 87q5 5 13 12q7 7 13 11q6 6 13 8t14 2q7 -1 13 -3q5 -1 11 -4q9 -5 21 -18t19 -26v0zM627 -56q0 1 2 3l5 5l6 6q10 10 25 26l34 34l37 37l100 100l87 -87l-100 -100l-37 -38l-33 -33l-25 -25q-10 -10 -12 -11
q-4 -5 -10 -9.5t-13 -7.5q-6 -3 -19 -7q-10 -4 -26 -10q-12 -4 -26 -7q-12 -4 -18 -4q-13 -2 -17 3t-2 17q1 6 4 19q3 11 8 26q4 13 8 24q3 12 6 16q3 7 6 12t10 11v0zM782 -144h42v-41h-42v41zM867 -144h41v-41h-41v41zM951 -144h41v-41h-41v41z" />
    <glyph glyph-name="uniE649" unicode="&#xe649;" 
d="M736 812h-579q-35 0 -59.5 -27t-24.5 -64v-840q0 -38 24.5 -64.5t59.5 -26.5h595q22 0 33.5 0.5t23 4t15.5 8t7.5 16.5t4 24.5t0.5 37.5v679h-59h-2h-2h-556q-34 0 -59 26.5t-25 64.5v8q0 38 25 64.5t59 26.5h363h156h156v-793h58v793v16v46h-214z" />
    <glyph glyph-name="uniE64A" unicode="&#xe64a;" 
d="M512 812q-138 0 -256 -69t-187 -187t-69 -256t69 -256t187 -187t256 -69t256 69t187 187t69 256t-69 256t-187 187t-256 69zM371 626l333 -294q13 -13 13 -32t-13 -32l-333 -294q-14 -11 -31 -9.5t-26 15.5q-5 5 -9 13t-4 13v0q0 19 13 32l300 262l-294 262
q-14 10 -15.5 27t9.5 31q9 14 26 15.5t31 -9.5z" />
    <glyph glyph-name="uniE64B" unicode="&#xe64b;" 
d="M955 522q0 4 -1 8q-2 20 -10 39t-22.5 37.5t-26 30.5t-32 32t-29.5 29q-19 20 -45 30.5t-45 12t-54 1.5h-385q-13 0 -22.5 -9.5t-9.5 -22.5v-163h-174q-13 0 -22.5 -9.5t-9.5 -22.5v-494q0 -67 38 -107t106 -40h204h43h172q15 0 45 -1.5t52.5 -2.5t53 0.5t53.5 5.5
t47 13.5t39 23.5t25 37.5t10 53.5v513v5zM131 0q-1 8 -1 17.5t0.5 21t0.5 17.5v427h142v-483q0 -35 17 -63h-59q-22 0 -35.5 1.5t-29.5 7.5t-25 19t-10 35zM889 -19q-5 -18 -19.5 -28.5t-37.5 -14t-42 -4t-45.5 1t-33.5 1.5h-246h-6h-1h-41q-37 2 -58.5 16t-21.5 52v397v276
h296q8 0 40 2t54 0.5t39 -8.5q11 -5 22.5 -16t25.5 -27.5t19 -20.5q1 -2 17 -18t21 -22t12 -19.5t8 -26.5v-393q0 -13 2 -45.5t1 -57t-5 -45.5zM733 434q20 0 28 15.5t0 31t-28 15.5h-278q-20 0 -28 -15.5t0 -31t28 -15.5h278zM583 327h-117q-19 0 -27.5 -16.5t0 -32.5
t27.5 -16h117q20 0 28.5 16t0 32.5t-28.5 16.5zM583 156h-117q-19 0 -27.5 -16t0 -31.5t27.5 -15.5h117v63zM711 305v-181q0 -15 16 -21t32 0t16 21v181h-64z" />
    <glyph glyph-name="uniE64C" unicode="&#xe64c;" 
d="M929 396.5q-8 23.5 -36 27.5l-237 34l-106 213q-13 25 -38 25t-38 -25l-106 -213l-237 -34q-28 -4 -36 -27.5t13 -43.5l172 -166l-41 -233q-4 -22 9 -37q11 -13 29 -13q12 0 23 6l212 110l212 -110q14 -7 28.5 -5t23.5 12q13 15 9 37l-40 233l171 166q21 20 13 43.5z
M691 219q-12 -11 -9 -26l37 -212l-193 100q-14 7 -28 0l-193 -100l37 212q3 15 -9 26l-156 151l216 31q16 2 23 16l96 193l96 -193q7 -14 23 -16l216 -31z" />
    <glyph glyph-name="uniE64D" unicode="&#xe64d;" 
d="M883 672q-25 17 -53 5l-287 -125q-31 -13 -62 0l-287 125q-28 12 -53 -5q-23 -16 -23 -46v-515q0 -16 9 -29.5t24 -20.5l325 -141q17 -8 36 -8t36 8l325 141q15 7 24 20.5t9 29.5v515q0 29 -23 46zM165 95q-10 5 -10 16v516q0 10 8 15q4 3 9 3q4 0 7 -2l315 -136v-555
q-3 1 -3 2zM869 111q0 -11 -10 -16l-326 -142l-1 -1h-2v555l315 136q8 4 16 -1t8 -15v-516z" />
    <glyph glyph-name="uniE64E" unicode="&#xe64e;" 
d="M871 724h-718q-30 0 -51 -21t-21 -51v-507q0 -30 21 -51t51 -21h151q13 0 22 9t9 21.5t-9 21.5t-22 9h-151q-4 0 -7 3t-3 8v507q0 4 3 7.5t7 3.5h718q4 0 7 -3.5t3 -7.5v-507q0 -5 -3 -8t-7 -3h-349q-12 0 -21 -9l-247 -246q-9 -9 -9 -21.5t9 -21.5t22 -9t22 9l237 237
h336q30 0 51 21t21 51v507q0 30 -21 51t-51 21zM389 432h-138q-13 0 -22 -9t-9 -22t9 -22t22 -9h138q13 0 22 9t9 22t-9 22t-22 9zM763 370q13 0 22 9t9 22t-9 22t-22 9h-138q-13 0 -22 -9t-9 -22t9 -22t22 -9h138zM538 370q12 0 21 9t9 22t-9 22t-21 9h-62q-13 0 -22 -9
t-9 -22t9 -22t22 -9h62z" />
    <glyph glyph-name="uniE64F" unicode="&#xe64f;" 
d="M847 105h-241q-1 -6 -3 -9l-79 -136q-6 -9 -13.5 -9t-13.5 9l-79 136q-2 3 -3 9h-241q-23 0 -39.5 16.5t-16.5 39.5v448q0 24 16.5 40t39.5 16h673q23 0 39.5 -16t16.5 -40v-448q0 -23 -16.5 -39.5t-39.5 -16.5zM286.5 441q-23.5 0 -40 -16.5t-16.5 -39.5t16.5 -39.5
t40 -16.5t39.5 16.5t16 39.5t-16 39.5t-39.5 16.5zM510.5 441q-23.5 0 -39.5 -16.5t-16 -39.5t16 -39.5t39.5 -16.5t40 16.5t16.5 39.5t-16.5 39.5t-40 16.5zM735 441q-23 0 -39.5 -16.5t-16.5 -39.5t16.5 -39.5t39.5 -16.5t39.5 16.5t16.5 39.5t-16.5 39.5t-39.5 16.5z" />
    <glyph glyph-name="uniE650" unicode="&#xe650;" 
d="M538 -58v-103h128v-51h-128h-52h-128v51h128v103q-116 0 -198.5 82.5t-82.5 198.5v103h51v-103q0 -95 67.5 -162.5t162.5 -67.5h52q95 0 162.5 67.5t67.5 162.5v103h51v-103q0 -116 -82.5 -198.5t-198.5 -82.5zM512 70q-74 0 -126.5 52.5t-52.5 126.5v205
q0 74 52.5 126.5t126.5 52.5t126.5 -52.5t52.5 -126.5v-205q0 -74 -52.5 -126.5t-126.5 -52.5zM640 454q0 53 -37.5 90.5t-90.5 37.5t-90.5 -37.5t-37.5 -90.5v-205q0 -53 37.5 -90.5t90.5 -37.5t90.5 37.5t37.5 90.5v205zM410 454q0 42 30 72t72 30t72 -30t30 -72v-77h-204
v77z" />
    <glyph glyph-name="uniE651" unicode="&#xe651;" 
d="M512 168l-397 400q-19 19 -45.5 19t-45.5 -19t-19 -46t19 -46l441 -444q19 -20 47 -19q28 -1 48 19l441 444q19 19 19 46t-19 46t-46 19t-46 -19z" />
    <glyph glyph-name="uniE652" unicode="&#xe652;" 
d="M990 433q0 14 -8.5 28.5t-17.5 21.5l-8 8l-413 219q-14 6 -34 6q-28 0 -195 -99l-246 -126q-4 -1 -9.5 -4.5t-15 -15.5t-9.5 -27.5t6 -27.5t12 -16l6 -4l119 -65v0v-307q1 -3 3 -8t12 -18t23.5 -25.5t40 -27.5t59 -25.5t83.5 -18t111 -7.5q82 0 147 13t99 30t56.5 36.5
t29 30t6.5 13.5v314l109 61q0 -6 14 4q20 15 20 37zM771 37q-2 -3 -8 -7.5t-28 -17t-49.5 -22t-75 -17.5t-102 -8t-100.5 7.5t-73 18t-46 21.5t-26 17.5t-7 7.5v249l188 -102q41 -24 68 -24q17 0 35.5 6t29.5 12l10 6l188 102v-249h-4zM515 239l-378 204l372 195l378 -195z
M948.5 351q-15.5 0 -27 -9.5t-13.5 -24.5v-307q3 -14 14.5 -24t26.5 -10t26.5 9.5t14.5 24.5v307q-3 15 -14.5 24.5t-27 9.5z" />
    <glyph glyph-name="uniE653" unicode="&#xe653;" 
d="M505 776q95 0 182 -37t150 -100t100.5 -150t37.5 -182t-37.5 -182t-100.5 -150t-150 -100.5t-182 -37.5t-182 37.5t-150 100.5t-100 150t-37 182t37 182t100 150t150 100t182 37zM505 -104q112 0 206.5 55t149.5 149.5t55 206t-55 206t-149.5 149.5t-206 55t-206 -55
t-149.5 -149.5t-55 -206t55 -206t149.5 -149.5t205.5 -55zM528 138v-59h-58v59h58zM470 564h58v-349h-58v349z" />
    <glyph glyph-name="uniE654" unicode="&#xe654;" 
d="M804 654v-431h-411v182l-265 -228l265 -227v182h457q18 0 31.5 13.5t13.5 31.5v477h-91zM804 654z" />
    <glyph glyph-name="uniE655" unicode="&#xe655;" 
d="M512 727q-116 0 -214 -57t-155.5 -155.5t-57.5 -214.5t57.5 -214t155.5 -155t214.5 -57t214.5 57t155.5 155t57.5 214t-57.5 214.5t-155.5 155.5t-215 57zM512 18q-22 0 -38 16t-16 38.5t16 38.5t38.5 16t38.5 -16t16 -38.5t-16 -38.5t-39 -16zM567 249q0 -23 -16 -39
t-38.5 -16t-38.5 16t-16 39v232q0 22 16 38t38.5 16t38.5 -16t16 -38v-232z" />
    <glyph glyph-name="uniE656" unicode="&#xe656;" 
d="M988 -173q-7 -7 -16 -7t-16 7l-116 116q17 14 32 31l116 -116q6 -6 6 -15.5t-6 -15.5zM652 -82q-102 0 -174 71.5t-72 173.5t72 173.5t173.5 71.5t173.5 -71.5t72 -173.5t-72 -173.5t-173 -71.5zM652 364q-83 0 -142 -59t-59 -142t59 -142t142 -59t142 59t59 142t-59 142
t-142 59zM495 163q0 11 2 22h177v-44h-177q-2 11 -2 22zM652 319q10 0 22 -2v-42h-132q46 44 110 44zM183 141v44h180q-1 -15 -1 -22t1 -22h-180zM384 275h-201v44h224q-14 -22 -23 -44zM183 587h223v-45h-223v45zM406 408h-223v45h223v-45zM785 453h-178q-37 0 -63 26
t-26 63v201h-402q-18 0 -31.5 -13t-13.5 -31v-670q0 -18 13.5 -31t31.5 -13h307q20 -26 43 -45h-350q-37 0 -63 26t-26 63v670q0 37 26 63t63 26h335h12h23h62l276 -297l-2 -8l8 -8v-10v-56v-18q-21 17 -45 29v33zM562 706v-164q0 -18 13.5 -31t31.5 -13h151z" />
    <glyph glyph-name="uniE657" unicode="&#xe657;" 
d="M1012 609l-89 -121q-1 32 -13.5 62t-32 52t-43 41t-47 31.5t-42.5 21t-31 12.5l-12 4q77 88 97 91l38 8q32 -10 62.5 -29t52 -39.5t38.5 -39.5t25 -32l9 -12zM879 464l-8 -23h-39q-6 36 -30.5 69t-54.5 54t-59.5 37t-48.5 23l-20 7q0 17 10 25.5t20 8.5h9q43 -4 81 -26.5
t62.5 -51t43 -57.5t26.5 -47t8 -19zM818 404l-13 -31l-41 -11q0 34 -21 68t-51.5 58.5t-60.5 44t-51 29.5l-22 9q0 17 8 23t16 3l7 -3q43 -4 82 -25.5t64.5 -48t45 -54t28.5 -44.5t9 -18zM731 299l-293 -294l1 2q-1 4 -2.5 11t-9 27t-17.5 39t-28 43t-39.5 43t-53.5 34.5
t-69 21.5l292 293q7 -2 18.5 -5.5t43 -20t58 -38.5t55.5 -63.5t44 -92.5zM366 -66l-366 -146l146 365q5 0 12 -0.5t28 -5.5t41 -13t44.5 -24.5t43 -38.5t33 -58t18.5 -79z" />
    <glyph glyph-name="uniE658" unicode="&#xe658;" 
d="M497 215q81 0 138.5 57.5t57.5 139.5v224q0 81 -57.5 138.5t-138.5 57.5t-138.5 -57.5t-57.5 -138.5v-224q0 -82 57.5 -139.5t138.5 -57.5zM357 636q0 58 41 99t99 41t99 -41t41 -99v-224q0 -58 -41 -99.5t-99 -41.5t-99 41.5t-41 99.5v224zM833 412h-56
q0 -116 -82 -198.5t-198 -82.5t-198 82.5t-82 198.5h-56q0 -132 89 -228.5t219 -106.5v-86h-168v-56h392v56h-168v86q130 10 219 106.5t89 228.5z" />
    <glyph glyph-name="uniE659" unicode="&#xe659;" 
d="M720 63v38h171q5 0 9 4t4 9v539q0 5 -4 9t-9 4h-398v38h398q21 0 36 -15t15 -36v-539q0 -21 -15 -36t-36 -15h-171zM589 68v2q0 96 -68.5 164.5t-164.5 68.5t-164 -68.5t-68 -164.5v-2h-42v2q0 92 55.5 165.5t144.5 98.5q-52 22 -84 70t-32 105q0 78 55.5 134t134.5 56
t134.5 -56t55.5 -134q0 -57 -31.5 -105t-84.5 -70q89 -25 144.5 -98.5t55.5 -165.5v-2h-41zM356 658q-61 0 -105 -44t-44 -105.5t44 -105t105.5 -43.5t105 43.5t43.5 105t-43.5 105.5t-105.5 44zM643 298v43h200v-43h-200zM573 427v43h270v-43h-270zM573 549v42h270v-42
h-270zM573 549z" />
    <glyph glyph-name="uniE65A" unicode="&#xe65a;" 
d="M743 406l-417 416q-9 10 -22.5 10t-22.5 -9.5t-9 -23t9 -22.5l373 -374l11 -10q5 -6 4.5 -10.5t-2.5 -7.5l-3 -3l-381 -381q-9 -9 -9 -22.5t9.5 -23t22.5 -9.5t23 10l412 412l1 1l1 1q9 10 9 23t-9 23z" />
    <glyph glyph-name="uniE65B" unicode="&#xe65b;" 
d="M512 516l397 -400q19 -19 45.5 -19t45.5 19t19 46t-19 46l-441 444q-19 20 -47 19q-28 1 -48 -19l-441 -444q-19 -19 -19 -46t19 -46t46 -19t46 19z" />
    <glyph glyph-name="uniE65C" unicode="&#xe65c;" 
d="M317 523q-10 0 -16.5 6t-6.5 14.5t7 14.5l274 251q6 6 15.5 6t16.5 -6l225 -206q7 -6 7 -15t-7 -15l-48 -44q-7 -6 -16 -6t-16 6t-7 14.5t7 14.5l32 30l-193 177l-258 -236q-7 -6 -16 -6zM222 523q-6 0 -12 3q-8 4 -10.5 12.5t2.5 15.5l160 251q4 7 13 9.5t18 -2.5
l133 -69q8 -5 10.5 -13t-2 -15.5t-13.5 -10t-18 1.5l-113 60l-148 -233q-7 -10 -20 -10zM839 -20h-685q-47 0 -80.5 30.5t-33.5 73.5v376q0 43 33.5 74t80.5 31h685q48 0 81.5 -31t33.5 -74v-376q0 -43 -33.5 -73.5t-81.5 -30.5zM154 523q-28 0 -48 -18.5t-20 -44.5v-376
q0 -26 20 -44t48 -18h685q29 0 49 18t20 44v376q0 26 -20 44.5t-49 18.5h-685zM771 189q-38 0 -64.5 24.5t-26.5 59t26.5 59t64.5 24.5t64.5 -24.5t26.5 -59t-26.5 -59t-64.5 -24.5zM771 314q-19 0 -32.5 -12.5t-13.5 -29.5t13.5 -29.5t32.5 -12.5t32.5 12.5t13.5 29.5
t-13.5 29.5t-32.5 12.5zM771 314z" />
    <glyph glyph-name="uniE65D" unicode="&#xe65d;" 
d="M122 384q0 106 52.5 195.5t142 142t195.5 52.5t195.5 -52.5t142 -142t52.5 -195.5t-52.5 -195.5t-142 -142t-195.5 -52.5t-195.5 52.5t-142 142t-52.5 195.5zM62 384q0 -91 36 -174.5t96 -143.5t143.5 -96t174.5 -36t174.5 36t143.5 96t96 143.5t36 174.5t-36 174.5
t-96 143.5t-143.5 96t-174.5 36t-174.5 -36t-143.5 -96t-96 -143.5t-36 -174.5zM272 399q-12 0 -21 -9t-9 -21t9 -21t21 -9h480q12 0 21 9t9 21t-9 21t-21 9h-480z" />
    <glyph glyph-name="uniE65E" unicode="&#xe65e;" 
d="M352 784q20 0 34 -14l352 -352q14 -14 14 -34t-14 -34l-352 -352q-14 -14 -34 -14t-34 14t-14 34t14 34l318 318l-318 318q-14 14 -14 34t14 34t34 14z" />
    <glyph glyph-name="uniE65F" unicode="&#xe65f;" 
d="M582 360.5q0 45.5 -17.5 87t-48 71.5t-71.5 47.5t-86.5 17.5t-86.5 -17.5t-71.5 -47.5t-48 -71.5t-17.5 -87t17.5 -86.5t48 -71t71.5 -48t86.5 -18t86.5 18t71.5 48t48 71t17.5 86.5zM917 361q0 45 -17.5 86.5t-47.5 71.5t-71.5 47.5t-86.5 17.5h-169q52 -39 82.5 -97.5
t30.5 -125.5t-30.5 -125.5t-82.5 -98.5h169q45 0 86.5 18t71.5 48t47.5 71t17.5 87v0zM973 361q0 -57 -22.5 -108.5t-59.5 -89t-89 -59.5t-108 -22h-336q-56 0 -108 22t-89 59.5t-59.5 89t-22.5 108.5t22.5 108.5t59.5 89t89 59.5t108 22h336q56 0 108 -22t89.5 -59.5
t59.5 -89t22 -108.5z" />
    <glyph glyph-name="uniE660" unicode="&#xe660;" 
d="M65 345q0 57 22 108.5t59.5 88.5t89 59.5t108.5 22.5h335q56 0 108 -22.5t89 -59.5t59.5 -88.5t22.5 -108.5t-22.5 -108.5t-59.5 -89t-89 -59.5t-108 -22h-335q-57 0 -108.5 22t-89 59.5t-59.5 89t-22 108.5zM679 122q45 0 86 17.5t71.5 47.5t48 71.5t17.5 86.5
t-17.5 86.5t-48 71.5t-71.5 47.5t-86.5 17.5t-86.5 -17.5t-71 -47.5t-47.5 -71.5t-17.5 -86.5t17.5 -86.5t47.5 -71.5t71 -47.5t87 -17.5z" />
    <glyph glyph-name="uniE661" unicode="&#xe661;" 
d="M621 493v403h-218v-403h-403v-218h403v-403h218v403h403v218h-403z" />
    <glyph glyph-name="uniE662" unicode="&#xe662;" 
d="M846 -146h-671q-62 0 -82 37t12 89l294 462v233h-38q-15 0 -26 11t-11 26t11 26t26 11h299q15 0 26 -11t11 -26t-11 -26t-26 -11h-38v-233l294 -462q32 -52 12 -89t-82 -37zM303 152h415l-159 250l-11 18v22v233h-75v-233v-22l-11 -18zM303 152z" />
    <glyph glyph-name="uniE663" unicode="&#xe663;" 
d="M601 96h-177q-10 0 -17 -6.5t-7 -16.5t7 -16.5t17 -6.5h177q9 0 16 6.5t7 16.5t-7 16.5t-16 6.5zM601 25h-177q-10 0 -17 -7t-7 -16.5t7 -16.5t17 -7h177q9 0 16 7t7 16.5t-7 16.5t-16 7zM512 -70l77 28h-154zM515 670h-6q-98 0 -171.5 -69t-73.5 -165q0 -45 17.5 -87.5
t38.5 -68.5t41 -51t23 -37q3 -13 5 -32t6.5 -26t17.5 -11t37 -6t42 -2l17 1h6q66 -3 96 7q13 4 17.5 11t6.5 26t5 32q3 12 23 37t41 51t38.5 68.5t17.5 87.5q0 96 -73.5 165t-171.5 69z" />
    <glyph glyph-name="uniE664" unicode="&#xe664;" 
d="M554 73q9 -1 18 3l374 197q9 5 12.5 15.5t-1.5 20t-15.5 12.5t-19.5 -2l-367 -193l-406 87q-18 4 -28 19.5t-6 33t19.5 27.5t33.5 7q391 -84 392 -84q6 0 12 3l374 197q9 5 12.5 15.5t-1.5 20t-15.5 12.5t-19.5 -2l-367 -193l-406 87q-18 4 -28 19.5t-6 33.5t19.5 27.5
t33.5 6.5q366 -78 367 -78q6 0 13 3l94 48q93 49 187 98l94 48q19 10 17.5 20t-22.5 14l-364 72q-21 4 -49.5 0t-47.5 -13l-337 -166q-7 -4 -12 -8q-35 -22 -44 -62q-5 -25 3 -49.5t27 -41.5q-23 -21 -30 -52q-5 -25 3 -49.5t27 -41.5q-23 -21 -30 -52q-8 -39 13.5 -72.5
t60.5 -41.5l419 -89q11 1 15 3l374 197q9 5 12.5 15.5t-1.5 20t-15.5 12.5t-19.5 -2l-367 -193l-406 87q-18 3 -28 18.5t-6 33.5t19.5 28t33.5 6q385 -82 386 -83zM532 582l174 -35l-76 -36l-175 35z" />
    <glyph glyph-name="uniE665" unicode="&#xe665;" horiz-adv-x="1025" 
d="M455 550h-51v52q0 10 -7.5 17.5t-18.5 7.5t-18 -7.5t-7 -17.5v-52h-52q-11 0 -18.5 -7.5t-7.5 -18t7.5 -18t18.5 -7.5h52v-52q0 -11 7 -18.5t18 -7.5t18.5 7.5t7.5 18.5v52h51q11 0 18.5 7.5t7.5 18t-7.5 18t-18.5 7.5zM450.5 306.5q-7.5 7.5 -18 7.5t-17.5 -7l-37 -37
l-37 37q-7 7 -17.5 7t-18 -7.5t-7.5 -18t7 -17.5l37 -37l-37 -36q-7 -8 -7 -18.5t7.5 -18t18 -7.5t17.5 7l37 37l37 -37q7 -7 17.5 -7t18 7.5t7.5 18t-7 18.5l-37 36l37 37q7 7 7 17.5t-7.5 18zM723 263h-154q-11 0 -18.5 -7.5t-7.5 -18t7.5 -18t18.5 -7.5h154
q11 0 18.5 7.5t7.5 18t-7.5 18t-18.5 7.5zM646 199q-12 0 -20.5 -8.5t-8.5 -20.5t8.5 -20.5t20.5 -8.5t20.5 8.5t8.5 20.5t-8.5 20.5t-20.5 8.5zM786 752h-548q-33 0 -57 -23.5t-24 -57.5v-574q0 -34 24 -57.5t57 -23.5h548q33 0 57 23.5t24 57.5v574q0 34 -24 57.5
t-57 23.5zM816 97q0 -12 -9 -21t-21 -9h-548q-12 0 -21 9t-9 21v574q0 12 9 21t21 9h548q12 0 21 -9t9 -21v-574zM723 592h-154q-11 0 -18.5 -7.5t-7.5 -18.5t7.5 -18.5t18.5 -7.5h154q11 0 18.5 7.5t7.5 18.5t-7.5 18.5t-18.5 7.5zM675 303q0 12 -8.5 20.5t-20.5 8.5
t-20.5 -8.5t-8.5 -20.5t8.5 -20.5t20.5 -8.5t20.5 8.5t8.5 20.5zM723 508h-154q-11 0 -18.5 -7.5t-7.5 -18t7.5 -18t18.5 -7.5h154q11 0 18.5 7.5t7.5 18t-7.5 18t-18.5 7.5z" />
    <glyph glyph-name="uniE666" unicode="&#xe666;" horiz-adv-x="1025" 
d="M804 595q-23 56 -63 102l48 48q8 7 8 18t-7.5 18.5t-18 7.5t-18.5 -8l-65 -65q-8 -8 -8 -18.5t8 -17.5q91 -92 91 -221.5t-91.5 -221t-220.5 -91.5q-115 0 -202 74l28 28q75 -63 174 -63q113 0 193 80.5t80 193.5t-80 193t-193 80t-193 -80t-80 -193q0 -99 62 -175
l-46 -46q-8 -8 -8 -18.5t8 -17.5q52 -53 120 -80q54 -22 111 -26v-65h-137q-11 0 -18.5 -7.5t-7.5 -18.5t7.5 -18.5t18.5 -7.5h326q11 0 18.5 7.5t7.5 18.5t-7.5 18.5t-18.5 7.5h-138v65q58 4 112 26q68 27 120 79.5t80 120.5q26 66 26 137t-26 136zM245 459q0 92 65 157
t157 65t157 -65t65 -157t-65 -157t-157 -65t-157 65t-65 157zM402 483l59 -5l-6 58l22 76l-76 -24l-58 5l6 -58l-22 -76z" />
    <glyph glyph-name="uniE667" unicode="&#xe667;" 
d="M511 742l-471 -256v-36h26v-24h11v-24h17v-246h56v246h17v24h11v24h110v-24h11v-24h17v-246h56v246h17v24h11v24h222v-24h11v-24h17v-246h56v246h17v24h11v24h109v-24h11v-24h17v-246h56v246h17v24h11v24h26v36zM512 529q-24 0 -41 17t-17 41t17 41t41 17t41 -17t17 -41
t-17 -41t-41 -17zM40 89h941v-63h-941v63zM80 153h861v-64h-861v64z" />
    <glyph glyph-name="uniE668" unicode="&#xe668;" 
d="M676 386v400h-78l18 103h-236l14 -103h-83v-400q-33 -26 -69 -64.5t-71 -85t-57 -98.5t-22 -95v-13q0 -26 5 -47t12.5 -36.5t21.5 -27.5t25.5 -20t31.5 -13.5t33 -8t35.5 -4t35.5 -1.5h34h33h339q110 0 156 20q78 35 78 138v13q0 79 -67.5 169.5t-188.5 173.5zM859 30
q0 -33 -9.5 -48.5t-25.5 -22.5q-31 -14 -126 -14h-339h-33q-99 0 -130 16.5t-31 68.5v13q0 62 68 154t136 142l16 11v363h19l5 -36h169l7 36h18v-366l16 -11q110 -72 175 -152t65 -141v-13zM576 310h-171q-3 -2 -7.5 -5.5t-20.5 -16.5t-29.5 -25.5t-34 -32t-34 -37
t-29.5 -40.5t-21 -42.5t-8.5 -42.5t8.5 -40q2 -3 7 -7t27 -10.5t50 -5.5q43 0 137.5 -0.5t204 -0.5t104.5 0h4q3 0 10.5 1t14 3.5t13.5 7t10.5 11t3 17t-7.5 23.5q-92 189 -231 243zM527 419zM498 419q0 12 8.5 20.5t20 8.5t20 -8.5t8.5 -20.5t-8.5 -20t-20 -8t-20 8
t-8.5 20zM446 542zM423 541.5q0 9.5 6.5 16t16 6.5t16.5 -6.5t7 -16t-7 -16t-16.5 -6.5t-16 6.5t-6.5 16zM505 624zM485 623.5q0 8.5 6 14.5t14.5 6t14.5 -6t6 -14.5t-6 -14.5t-14.5 -6t-14.5 6t-6 14.5z" />
    <glyph glyph-name="uniE669" unicode="&#xe669;" 
d="M665 408q33 0 56.5 23.5t23.5 56.5v304q0 33 -23.5 56.5t-56.5 23.5h-304q-33 0 -56.5 -23.5t-23.5 -56.5v-304q0 -33 23.5 -56.5t56.5 -23.5h304zM329 488v304q0 13 9.5 22.5t22.5 9.5h304q14 0 23 -9.5t9 -22.5v-304q0 -13 -9 -22.5t-23 -9.5h-304q-13 0 -22.5 9.5
t-9.5 22.5zM25 296v-304q0 -33 23.5 -56.5t56.5 -23.5h304q33 0 56.5 23.5t23.5 56.5v304q0 33 -23.5 56.5t-56.5 23.5h-304q-33 0 -56.5 -23.5t-23.5 -56.5zM441 296v-304q0 -13 -9 -22.5t-23 -9.5h-304q-13 0 -22.5 9.5t-9.5 22.5v304q0 13 9.5 22.5t22.5 9.5h304
q14 0 23 -9.5t9 -22.5zM993 296q0 33 -23.5 56.5t-56.5 23.5h-304q-33 0 -56.5 -23.5t-23.5 -56.5v-304q0 -33 23.5 -56.5t56.5 -23.5h304q33 0 56.5 23.5t23.5 56.5v304zM945 -8q0 -13 -9 -22.5t-23 -9.5h-304q-13 0 -22.5 9.5t-9.5 22.5v304q0 13 9.5 22.5t22.5 9.5h304
q14 0 23 -9.5t9 -22.5v-304zM384 499q5 -3 10 -3q15 0 22 14l21 43h152l22 -43q7 -14 21 -14q6 0 11 3q9 4 12 13.5t-1 18.5l-119 239v1h-1q0 1 -1 3l-1 1l-2 1l-2 2q0 1 -1 1.5t-2 1.5h-1v1h-1q-2 0 -3 1h-2q-1 0 -2 0.5t-2.5 0.5t-2.5 -0.5t-3 -0.5h-1q-2 -1 -3 -1l-1 -1
h-1t-2 -2h-1q-1 0 -1 -1l-2 -2l-1 -1l-1 -1q-1 -2 -2 -3v-1l-119 -239q-5 -9 -1.5 -18.5t12.5 -13.5zM513 706l52 -105h-104zM200 -6h61q39 0 66.5 27.5t27.5 66.5q0 26 -14 48.5t-36 34.5q15 21 15 46q0 31 -22.5 54t-54.5 23h-43q-13 0 -23.5 -8t-14.5 -20q-2 -5 -2 -10
v-2v-75v-37v-108v-1q0 -3 1 -6q2 -14 13 -23.5t26 -9.5zM307 88q0 -19 -13.5 -32.5t-32.5 -13.5h-53v92h53q19 0 32.5 -13.5t13.5 -32.5zM272 216.5q0 -12.5 -8.5 -21t-20.5 -8.5h-35v59h35q12 0 20.5 -8.5t8.5 -21zM845 75q-27 -26 -65 -26q-39 0 -67 28t-28 67t28 67
t67 28q36 0 63 -24q8 -6 17.5 -5.5t16.5 8t6 17t-8 16.5q-41 36 -95 36q-59 0 -101 -42t-42 -101t42 -101t101 -42q57 0 98 39q7 7 7.5 17t-6.5 17t-16.5 7.5t-17.5 -6.5z" />
    <glyph glyph-name="uniE66A" unicode="&#xe66a;" 
d="M192 171q-149 0 -149 -107t149 -107t149 107t-149 107zM1003 725h-86q-9 0 -15 -5.5t-6 -15.5v-107h-43v150q0 9 -5.5 15t-15.5 6h-85q-10 0 -16 -6t-6 -15v-107h-42v107q0 9 -6 15t-16 6h-85q-10 0 -15.5 -6t-5.5 -15v-107h-43v64q0 10 -6 15.5t-15 5.5h-86
q-9 0 -15 -5.5t-6 -15.5v-107h-43v86q0 106 -149 106t-149 -106v-512q48 42 149 42t149 -42v42h43v-106q0 -10 6 -16t15 -6h86q9 0 15 6t6 16v149h43v-107q0 -9 5.5 -15t15.5 -6h85q10 0 16 6t6 15v107h42v-107q0 -9 6 -15t16 -6h85q10 0 15.5 6t5.5 15v64h43v-106
q0 -10 6 -16t15 -6h86q9 0 15 6t6 16v597q0 10 -6 15.5t-15 5.5zM384 256h-43v299h43v-299zM555 299h-43v298h43v-298zM725 299h-42v298h42v-298zM896 256h-43v299h43v-299z" />
    <glyph glyph-name="uniE66B" unicode="&#xe66b;" 
d="M869 182q-13 -11 -32.5 0t-40.5 40q-18 -48 -46 -90q30 -10 47 -26t17 -34q0 -32 -49 -54.5t-119 -22.5q-84 0 -135 31q-50 -31 -135 -31q-70 0 -119 22.5t-49 54.5q0 18 17 34t47 26q-28 41 -46 90q-21 -29 -40.5 -40t-32.5 0q-18 16 -12 66t32 104q11 25 24 45
q3 103 45.5 190.5t113.5 138t155 50.5t155 -50.5t113.5 -138t44.5 -190.5q14 -21 25 -45q26 -54 32 -104t-12 -66v0zM869 182z" />
    <glyph glyph-name="uniE66C" unicode="&#xe66c;" horiz-adv-x="1294" 
d="M776 281q30 56 53.5 116.5t31.5 93.5l8 33h-230v87h274v38h-274v131h-125v-131h-249v-38h249v-87h-211v-37h429q0 -6 -6 -13q0 -43 -56 -155q-46 18 -88.5 31.5t-76 21.5t-65 12t-54 5.5t-44.5 -0.5t-35 -4.5t-28 -7.5t-20.5 -8t-14.5 -8t-10 -5q-43 -31 -67 -66
t-27.5 -66.5t3.5 -62t22.5 -55.5t32.5 -43.5t32.5 -28.5t22.5 -8q278 -62 467 162q6 -6 19 -6q30 -17 130 -65.5t184 -88t84 -40.5v187q-8 0 -20.5 2t-30.5 6.5t-35 9t-42.5 12.5t-43.5 14t-49 16t-47 15t-48.5 16t-44.5 15zM614 225q-44 -56 -96 -90t-93.5 -44t-84.5 -8.5
t-63.5 6.5t-36.5 12q-27 6 -45 32.5t-21.5 57.5t12 62t48.5 47q55 18 111 20t108 -11t90 -28t83 -37zM614 225z" />
    <glyph glyph-name="uniE66D" unicode="&#xe66d;" 
d="M728 158q-56 0 -99 -36l-221 153q15 30 15 64q0 33 -15 62l228 131q36 -31 82 -31q51 0 87.5 36.5t36.5 87.5t-36.5 87.5t-87.5 36.5t-87.5 -36.5t-36.5 -87.5q0 -24 9 -47l-230 -131q-40 35 -93 35q-59 0 -101 -42t-42 -101t42 -101t101 -42q52 0 92 34l221 -153
q-18 -33 -18 -71q0 -63 44.5 -108t108 -45t108 45t44.5 108t-44.5 107.5t-107.5 44.5zM718 691q28 0 47.5 -19.5t19.5 -47t-19.5 -47t-47.5 -19.5t-47.5 19.5t-19.5 47t19.5 47t47.5 19.5zM279.5 253q-35.5 0 -60.5 25.5t-25 60.5t25 60.5t60.5 25.5t61 -25.5t25.5 -60.5
t-25.5 -60.5t-61 -25.5zM727.5 -90q-39.5 0 -67.5 28t-28 67.5t28 67.5t67.5 28t67.5 -28t28 -67.5t-28 -67.5t-67.5 -28z" />
    <glyph glyph-name="uniE66E" unicode="&#xe66e;" 
d="M954 437q-2 -20 -2 -21q-4 -54 -29 -105q-38 -78 -99 -148q-56 -66 -136 -139q-65 -59 -142 -120q-19 -16 -41 -14q-15 2 -27 12q-145 115 -247 222q-71 76 -114 152q-33 58 -42 104q-1 2 -6 45l-1 5v25l1 5q0 1 0.5 9t1.5 12q12 81 60 140q67 82 168 91q52 5 103 -15
q55 -22 96 -69q1 -1 13 -16l3 4q34 44 80 69q71 38 148 25q88 -15 148 -88q55 -67 62 -156q0 -1 2 -21v-8zM899 441q-2 24 -2 25q-8 72 -54 123q-65 72 -158 63q-62 -7 -111 -55q-29 -28 -47 -72q-5 -11 -16 -11t-16 11q-16 38 -38 62q-56 63 -134 65q-76 3 -130 -49
q-88 -84 -65 -208q7 -35 35 -85q40 -72 112 -148q95 -99 232 -209q4 -3 8 0q73 59 134 114q80 73 134 136q60 69 94 143q21 44 22 95z" />
    <glyph glyph-name="uniE66F" unicode="&#xe66f;" 
d="M420 827h-325q-19 0 -33 -18t-14 -38v-315q0 -19 18.5 -36t38.5 -17h311q19 0 38 19t19 38v311q0 19 -17 37.5t-36 18.5zM416 460h-311v311h311v-311zM303 658h-85v-85l86 -1zM420 347h-325q-19 0 -33 -18.5t-14 -38.5v-315q0 -19 18.5 -36t38.5 -17h311q19 0 38 19
t19 38v311q0 20 -17 38.5t-36 18.5zM416 -21h-311v311h311v-311zM304 178l-86 -1v-85h85zM900 827h-324q-19 0 -33 -18t-14 -38v-315q0 -19 18.5 -36t38.5 -17h311q19 0 37.5 19t18.5 38v311q0 19 -17 37.5t-36 18.5zM897 460h-311v311h311v-311zM784 658h-85v-85h85v85z
M868 262h-113v85h-226v-425h113v227h85v-57h226v256l-85 -1v-85zM727 -78h85v85h-85v-85zM911 7h-1h-42v-85h39v1l4 -1q17 0 29.5 12.5t12.5 30.5v3v1v38h-42v0z" />
    <glyph glyph-name="uniE670" unicode="&#xe670;" 
d="M512 -212q-16 0 -44 26.5t-54.5 60t-55 74.5t-41.5 61t-18 28q-24 38 -47 79.5t-51.5 100t-46.5 116.5t-18 102q0 102 50.5 188.5t137 137t188.5 50.5q115 0 210 -64q6 -4 7.5 -11.5t-3 -14t-12 -8t-13.5 3.5q-85 57 -189 57q-92 0 -170 -45.5t-123.5 -123.5t-45.5 -170
q0 -68 46.5 -174t106 -198t114 -162t73.5 -77q20 6 75 76.5t113.5 163.5t104 199.5t45.5 171.5q0 96 -50 177q-4 7 -2 14.5t8.5 11.5t14 2t11.5 -8q55 -91 55 -197q0 -44 -17.5 -102.5t-45.5 -117t-51 -99.5t-46 -79q-12 -20 -30 -46.5t-56 -80t-73.5 -88.5t-56.5 -35z
M512 280q-77 0 -131.5 54t-54.5 131t54.5 131.5t131.5 54.5t131.5 -54.5t54.5 -131.5t-54.5 -131t-131.5 -54zM512 614q-62 0 -105.5 -43.5t-43.5 -105t43.5 -105.5t105.5 -44t105.5 44t43.5 105.5t-43.5 105t-105.5 43.5z" />
    <glyph glyph-name="uniE671" unicode="&#xe671;" 
d="M163 830q-41 0 -69.5 -28.5t-28.5 -68.5t28.5 -68.5t69 -28.5t69 28.5t28.5 68.5t-28.5 68.5t-68.5 28.5zM163 685q-21 0 -35 14t-14 34t14 34.5t34.5 14.5t35 -14.5t14.5 -34.5t-14.5 -34t-34.5 -14zM163 685zM163 131q-41 0 -69.5 -28.5t-28.5 -69t28.5 -69t69 -28.5
t69 28.5t28.5 69t-28.5 69t-68.5 28.5zM163 -15q-21 0 -35 14t-14 34.5t14 34.5t34.5 14t35 -14t14.5 -34.5t-14.5 -34.5t-34.5 -14zM163 -15zM163 482q-41 0 -69.5 -28.5t-28.5 -69t28.5 -69t69 -28.5t69 28.5t28.5 69t-28.5 69t-68.5 28.5zM163 336q-21 0 -35 14t-14 34.5
t14 34.5t34.5 14t35 -14t14.5 -34.5t-14.5 -34.5t-34.5 -14zM163 336zM389 712h540q12 0 21 8.5t9 21t-9 21t-21 8.5h-540q-12 0 -21 -8.5t-9 -21t9 -21t21 -8.5zM389 712zM929 414h-540q-12 0 -21 -9t-9 -21t9 -21t21 -9h540q12 0 21 9t9 21t-9 21t-21 9zM929 414zM929 56
h-540q-12 0 -21 -8.5t-9 -21t9 -21t21 -8.5h540q12 0 21 8.5t9 21t-9 21t-21 8.5zM929 56z" />
    <glyph glyph-name="uniE672" unicode="&#xe672;" 
d="M1023 313q1 -7 -1 -14l-92 -407q-2 -7 -6 -13q-16 -31 -45 -50q-31 -19 -68 -19h-591h-6h-7h-157h-7q-18 0 -30.5 12.5t-12.5 29.5l1 512q0 18 12.5 30.5t29.5 12.5q3 0 6 -1l141 1q98 7 166 78.5t71 169.5q-1 6 -1 11q0 52 36.5 88t87.5 36q44 0 77.5 -27t43.5 -69h1
q10 -48 10 -97q0 -76 -24 -147l237 -1h7q31 -1 58.5 -17t44.5 -43q21 -35 18 -76zM86 -104h85v425h-85v-425zM933 345q-13 20 -37 19h-1h-300q-18 0 -30.5 12.5t-12.5 30.5q0 10 5 19h-1q26 49 37 103q1 2 2 7.5t2.5 22.5t1.5 37q0 16 -2 32.5t-3 25.5l-2 9v1v1
q0 16 -11.5 28t-28 12t-28.5 -12t-12 -28v-3q1 -33 -6 -68q-4 -19 -10 -39h-1q-27 -82 -90.5 -142t-147.5 -81l-1 -436l556 -1h5q9 1 16 6q11 6 15 18h1l88 391q6 18 -4 35z" />
    <glyph glyph-name="uniE673" unicode="&#xe673;" 
d="M890 499h-282q3 17 10 51.5t11 54t8.5 51t5 51.5t-2 45.5t-10 42t-21 32t-33.5 24.5q-19 9 -34.5 12.5t-27 5t-21 -4t-16 -9.5t-12 -17t-8.5 -21.5t-6 -28t-5 -31.5l-4 -36v-4q-4 -34 -25 -72.5t-48.5 -68.5t-55 -55.5t-45.5 -39.5l-18 -14v-563h608q23 11 45 52
t40.5 108.5t30 118t26.5 129t18 91.5q18 87 -75 97q-28 3 -53 -1zM0 467h179v-569h-179v569z" />
    <glyph glyph-name="uniE674" unicode="&#xe674;" 
d="M512 896q-139 0 -257 -68.5t-186.5 -186.5t-68.5 -257t68.5 -257t186.5 -186.5t257 -68.5t257 68.5t186.5 186.5t68.5 257t-68.5 257t-186.5 186.5t-257 68.5v0zM512 -95q-98 0 -187 37.5t-153 101.5t-101.5 153t-37.5 187t37.5 187t101.5 153t153 101.5t187 37.5
t187 -37.5t153 -101.5t101.5 -153t37.5 -187t-37.5 -187t-101.5 -153t-153 -101.5t-187 -37.5v0zM733 392l-340 197q-6 6 -12 0q-3 0 -5.5 -2.5t-2.5 -5.5v-394l4 -8q6 -6 12 0l344 197q4 4 4 8q3 3 1.5 5.5t-5.5 2.5v0zM733 392z" />
    <glyph glyph-name="uniE675" unicode="&#xe675;" 
d="M960 343l-448 450l-448 -450h264v-368h368v368h264z" />
    <glyph glyph-name="uniE676" unicode="&#xe676;" horiz-adv-x="1449" 
d="M303 453l447 -450l448 450h-264v368h-368v-368h-263z" />
    <glyph glyph-name="uniE677" unicode="&#xe677;" 
d="M243 367q-23 0 -40 10t-17 24t17 24t40 10h569q24 0 40.5 -10t16.5 -24t-16.5 -24t-40.5 -10h-569z" />
    <glyph glyph-name="uniE678" unicode="&#xe678;" 
d="M639 610q0 3 0.5 8t4.5 18t11 23t22 18t36 8h46h8q5 0 17.5 -3.5t22 -10t17.5 -22t8 -36.5v-623q0 -3 -0.5 -8.5t-4.5 -18.5t-11 -23.5t-21.5 -18.5t-34.5 -8h-49q-3 0 -7.5 0.5t-17 5t-22.5 12t-17.5 23.5t-7.5 38v618zM511 637q0 2 0.5 5.5t0.5 12.5t-1.5 15.5
t-4.5 11.5t-10 3.5t-16 -10.5l-342 -348q-3 -2 -7 -6t-5 -15t13 -22l343 -361l10 -9q15 -7 18 29q1 8 1 18v676z" />
    <glyph glyph-name="uniE679" unicode="&#xe679;" 
d="M385 -34q0 -3 -0.5 -8t-4.5 -18t-11 -23t-22 -18t-36 -8h-46h-8q-5 0 -17.5 3.5t-22 10t-17.5 22t-8 36.5v623q0 3 0.5 8.5t4.5 18.5t11 23.5t21.5 18.5t34.5 8h49q3 0 7.5 -0.5t17 -5t22.5 -12t17.5 -23.5t7.5 -38v-618zM513 -61q0 -2 -0.5 -5.5t-0.5 -12.5t1.5 -15.5
t4.5 -11.5t10 -3.5t16 10.5l342 348q3 2 7 6t5 15t-13 22l-343 361l-10 9q-15 7 -18 -29q-1 -8 -1 -18v-676z" />
    <glyph glyph-name="uniE67A" unicode="&#xe67a;" 
d="M701 230l-54 164l-50 -133l-82 172l-71 -171l-67 134l-43 -163l-64 48l34 -119h429l45 129zM720 185h-400l-12 38l41 -27l34 133l62 -117l71 157l81 -161l51 116l45 -133l45 39zM315 128q13 -42 17 -55t18 -24t33 -11h282q31 0 42 34l15 56h-407zM654 61h-142h-138
q-10 0 -16.5 11t-8.5 22l-2 12h341q0 -23 -15 -37q-8 -8 -19 -8zM778 377q14 0 24 -10t10 -24t-10 -24t-24 -10t-24 10t-10 24t10 24t24 10zM512.5 535q16.5 0 28 -11.5t11.5 -28t-11.5 -28t-28 -11.5t-28 11.5t-11.5 28t11.5 28t28 11.5zM259 377q14 0 24 -10t10 -24
t-10 -24t-24 -10t-24 10t-10 24t10 24t24 10z" />
    <glyph glyph-name="uniE67B" unicode="&#xe67b;" 
d="M623 476v256h-255v-256h-256l389 -447l378 447h-256zM943 -163h-895v256h128v-128h639v128h128v-256z" />
    <glyph glyph-name="uniE67C" unicode="&#xe67c;" 
d="M743 610v-117l135 205l-135 198v-111q-5 0 -14.5 1t-39 -0.5t-58 -5.5t-68.5 -16.5t-75.5 -31t-73 -51.5t-66 -75.5t-51 -105.5t-30.5 -139h29q35 67 78.5 117t85 76.5t84 42.5t77.5 19t63 2.5t44 -4.5zM774 234q-3 10 -15 17t-25 7h-659q-13 0 -20.5 -7t-4.5 -17
l110 -338q4 -10 15.5 -17t25.5 -7h658q14 0 21.5 7t3.5 17zM838 469h-173q-45 2 -70 -108h-299q-13 -23 -23 -47q-3 -6 -4 6q-4 24 -2 41h-70q-13 0 -23 -9.5t-10 -23.5v-37h570q22 0 42 -11q22 -14 30 -36l82 -254v405q0 6 -1.5 13.5t-6 23.5t-15.5 26.5t-27 10.5z" />
    <glyph glyph-name="uniE67D" unicode="&#xe67d;" horiz-adv-x="1026" 
d="M1026 634v4h-1v4h-1v1l-1 1h-1v1v1l-3 2v1l-1 1v1h-2l-1 1h-1l-1 1v1h-1h-1l-1 1v1h-4v1h-6l-1 -1h-1v-1h-1l-1 -1h-2l-978 -372q-10 -4 -14 -13t0 -19q4 -11 15 -15l293 -117l31 -169q2 -10 10 -15.5t18 -4.5q8 1 13 8l109 109l222 -89q9 -4 18.5 0t13.5 13l278 651l1 1
v2v6zM329 164l-237 94l752 288zM380 5l-16 93l78 -32zM710 11l-328 131l562 416z" />
    <glyph glyph-name="uniE67E" unicode="&#xe67e;" 
d="M512 896q-104 0 -199 -40.5t-163.5 -109t-109 -163.5t-40.5 -199t40.5 -199t109 -163.5t163.5 -109t199 -40.5t199 40.5t163.5 109t109 163.5t40.5 199t-40.5 199t-109 163.5t-163.5 109t-199 40.5zM512 -32q-113 0 -209 55.5t-151.5 151.5t-55.5 209t55.5 209
t151.5 151.5t209 55.5t209 -55.5t151.5 -151.5t55.5 -209t-55.5 -209t-151.5 -151.5t-209 -55.5zM512 123q-108 0 -184.5 76.5t-76.5 184.5t76.5 184.5t184.5 76.5t184.5 -76.5t76.5 -184.5t-76.5 -184.5t-184.5 -76.5z" />
    <glyph glyph-name="uniE67F" unicode="&#xe67f;" 
d="M1002 607q-54 45 -110 69q-27 13 -63.5 20t-59.5 7h-23q-61 5 -123 -24q-27 -13 -54 -30.5t-40 -27.5l-13 -11q-63 48 -119 73q-25 12 -59 17t-56 4l-21 -1q-77 -3 -126 -25.5t-95 -74.5v-680q70 60 111 77q19 8 45.5 12t43.5 4h18q78 -9 124 -28q21 -8 54.5 -30
t56.5 -39.5t23 -18.5q56 59 100 82q34 17 73 25.5t55.5 7.5t22.5 0q46 -2 110 -26q26 -10 57.5 -27t50.5 -28l19 -12zM492 -25q-5 4 -13.5 10.5t-35.5 22.5t-53.5 28t-63 22t-68.5 9q-74 -1 -113 -16.5t-65 -40.5v70v144v162v137q0 57 0 55q1 3 5 8t18.5 18.5t33 23.5
t52 19.5t73.5 11.5q41 3 84 -8t72.5 -28t49 -32t22.5 -23q2 -14 2 -593zM958 -3q-26 26 -82 48.5t-129 23.5q-32 1 -65 -8.5t-57.5 -23.5t-44 -28.5t-29.5 -24t-10 -10.5q-1 572 2 593q6 9 21.5 22.5t43 31t71.5 28.5t93 9q34 -2 66 -10.5t53 -20t37.5 -22.5t23.5 -19l8 -7
q-2 -549 -2 -582z" />
    <glyph glyph-name="uniE680" unicode="&#xe680;" 
d="M54 580l444 -242q7 -3 14.5 -3t14.5 3l449 242q16 9 15.5 27t-16.5 26l-444 226q-14 7 -27 0l-449 -226q-16 -8 -16.5 -26t15.5 -27zM517 799l380 -193l-384 -207l-380 207zM970 413l-89 45l-64 -34l75 -38l-385 -207l-379 207l80 40l-64 35l-94 -48q-16 -8 -16.5 -26
t15.5 -27l444 -242q7 -3 14.5 -3t14.5 3l448 242q16 9 16 27t-16 26zM970 204l-84 41l-64 -34l70 -35l-385 -207l-379 207l74 34l-64 34l-88 -40q-16 -8 -16.5 -26.5t15.5 -26.5l444 -242q7 -4 14.5 -4t14.5 4l448 242q16 8 16 26.5t-16 26.5z" />
    <glyph glyph-name="uniE681" unicode="&#xe681;" 
d="M239 655q-7 0 -12 -6.5t-5 -16t5 -16t12 -6.5h634q7 0 13.5 6.5t6.5 16t-6.5 16t-13.5 6.5h-634zM247 559q-32 0 -52.5 21.5t-20.5 49.5v14q0 25 22 42.5t51 17.5h628q2 0 5 1t8 6.5t5 13.5t-4.5 13.5t-9.5 6.5l-4 1h-628q-48 0 -82.5 -30t-34.5 -72v-14v-11v-634
q0 -65 32 -97.5t99 -32.5h486q76 0 111.5 32t35.5 98v574h-647zM760 -101h-505q-37 0 -59 20t-22 61v566q34 -30 81 -30h595v-539q0 -35 -25 -56.5t-65 -21.5zM446 -31l-30 30q-6 6 -6 15t6 15l120 120l-120 119q-6 6 -6 15t6 15l30 30q6 6 15 6t15 -6l119 -120l120 120
q6 6 15 6t15 -6l30 -30q6 -6 6 -15t-6 -15l-120 -119l120 -120q6 -6 6 -15t-6 -15l-30 -30q-6 -6 -15 -6t-15 6l-120 120l-119 -120q-6 -6 -15 -6t-15 6z" />
    <glyph glyph-name="uniE682" unicode="&#xe682;" 
d="M848 600v48h-96v96h-48v-144h48h96zM921 -24q0 -15 -5 -19.5t-21 -4.5h-766q-16 0 -21 4.5t-5 19.5v816q0 15 5 19.5t21 4.5h335v48h-361q-18 0 -33 -14t-15 -32v-868q0 -18 15 -32t33 -14h818q18 0 33 14t15 32v410h-48v-384zM752.5 432q89.5 0 153 63.5t63.5 152.5
t-63.5 152.5t-153 63.5t-153 -63.5t-63.5 -152.5t63.5 -152.5t153 -63.5zM752.5 816q69.5 0 119 -49t49.5 -119t-49.5 -119t-119 -49t-119 49t-49.5 119t49.5 119t119 49zM200 480h264v-48h-264v48zM200 120h624v-48h-624v48zM200 288h624v-48h-624v48z" />
    <glyph glyph-name="uniE683" unicode="&#xe683;" 
d="M470 0q0 -4 4 -8t8 -4q165 0 280.5 120t115.5 288q0 4 -4 8t-8 4t-8 -4t-4 -8q0 -158 -109.5 -271t-262.5 -113q-4 0 -8 -4t-4 -8zM914 624q-51 83 -126.5 141.5t-167.5 80.5q-135 36 -268.5 -6t-223.5 -150l-78 42l-6 -216q0 -18 14 -24.5t28 6.5l168 132l-78 36
q82 91 199 127t233 5q168 -44 264 -198q44 -71 54.5 -157.5t-12.5 -166.5q-29 -112 -111 -193t-193.5 -112t-223.5 -1q-170 45 -264 204q-4 9 -15.5 12.5t-20.5 -0.5t-12.5 -15.5t0.5 -20.5q100 -173 294 -228q72 -18 132 -18q159 0 290.5 99t171.5 255q54 190 -48 366z
M512 642q-9 0 -16.5 -7.5t-7.5 -16.5v-258h-252q-24 0 -24 -24q0 -9 7.5 -16.5t16.5 -7.5h300v306q0 9 -7.5 16.5t-16.5 7.5z" />
    <glyph glyph-name="uniE684" unicode="&#xe684;" 
d="M985.5 501q-5.5 17 -23.5 20l-293 43l-131 265q-7 15 -26 15t-27 -15l-131 -265l-293 -43q-18 -3 -23.5 -20t7.5 -30l212 -207l-50 -291q-3 -18 12 -29t31 -2l262 137l261 -137h1v-1q1 0 4 -1q4 -1 7 -1q1 0 1 -1h1h2l1 1q4 0 7 1q1 0 4 2t5 4q2 1 3 2q3 4 5 7v1
q2 5 2 11q1 0 1 0.5t-1 0.5v1q0 17 -16 25l-2 1l-50 27v-1l-223 118q-6 3 -13.5 3t-13.5 -3l-223 -118l43 249q2 15 -9 26l-180 175l249 37q15 2 22 16l112 225l111 -225q7 -14 22 -16l249 -37l-180 -175q-11 -11 -8 -26l22 -129q-1 4 -1 5q0 -12 8.5 -21t21 -9t21 9t8.5 21
q0 1 -0.5 2t-0.5 2h1l-20 114l212 207q13 13 7.5 30z" />
    <glyph glyph-name="uniE685" unicode="&#xe685;" 
d="M921.5 780.5q-39.5 39.5 -95 39.5t-95.5 -39l-15 -16l190 -191l16 16q39 39 39 95t-39.5 95.5zM904 640l-123 123q25 15 56.5 11t52.5 -25q22 -22 25.5 -53t-11.5 -56zM658 693l177 -178l25 26l-177 178zM126 7l76 153l-35 45l-101 -258l284 75l-46 36zM405 134l-127 127
l377 370l-36 36l-415 -420l187 -188l418 418l-36 36z" />
    <glyph glyph-name="uniE686" unicode="&#xe686;" 
d="M977 525q-11 40 -56.5 67.5t-116.5 38.5q26 -34 37 -53q80 -23 93 -66q7 -26 -12 -58q-18 -32 -73 -76v4q0 92 -46 171t-124.5 124.5t-170.5 45.5q-90 1 -168 -44t-123.5 -124t-45.5 -171q0 -86 40 -160q-50 9 -82.5 28.5t-41.5 44.5q-6 25 13 57q7 13 28 39q0 35 6 64
q-52 -43 -76 -87.5t-13 -83.5q12 -44 64 -72.5t132 -38.5q49 -62 119 -97t152 -35q124 0 219 80t116 199q74 49 109 102.5t21 100.5zM512 85q-60 0 -114.5 22.5t-94.5 63.5h21q115 0 243 32q117 29 227 87q-28 -90 -106 -147.5t-176 -57.5zM809 348q-108 -67 -250 -103
q-118 -32 -233 -32q-11 0 -30.5 1t-28.5 1q-54 77 -54 169q0 123 88 211t211 88t211 -88t88 -211q0 -23 -2 -36z" />
    <glyph glyph-name="uniE687" unicode="&#xe687;" 
d="M881 -52h-182v57h124v372h38l-351 351l-350 -351h38v-372h124v-57h-182v372h-119l490 489l489 -489h-119v-372zM420 255h181v-312h-181v312z" />
    <glyph glyph-name="uniE688" unicode="&#xe688;" 
d="M777 550l-265 -266l-265 266q-9 10 -22.5 10t-23 -9.5t-9.5 -23t9 -22.5l287 -288q9 -9 24 -9q15 -1 24 9l287 288q9 9 9 22.5t-9.5 23t-23 9.5t-22.5 -10z" />
    <glyph glyph-name="uniE689" unicode="&#xe689;" 
d="M511 -62q-7 0 -12 4q-10 9 -25.5 22.5t-52.5 49.5t-71.5 72t-74.5 86t-69.5 95.5t-49 96t-19.5 92.5q0 101 50 187t136.5 136.5t187.5 50.5t187.5 -50.5t136.5 -136.5t50 -187q0 -42 -19.5 -92.5t-49 -96t-69.5 -95.5t-74.5 -86t-71.5 -72t-52.5 -49.5t-25.5 -22.5
q-5 -4 -12 -4zM511 791q-91 0 -168.5 -45t-122.5 -122t-45 -168q0 -47 30 -108t69.5 -113.5t92.5 -109.5t84.5 -87t59.5 -55q28 25 59.5 55t84.5 87t92.5 109.5t69.5 113.5t30 108q0 91 -45 168t-122.5 122t-168.5 45zM511 283q-71 0 -122 50.5t-51 122t51 122t122 50.5
t122 -50.5t51 -122t-51 -122t-122 -50.5zM511 590q-56 0 -95 -39.5t-39 -95t39 -95t95 -39.5t95 39.5t39 95t-39 95t-95 39.5z" />
    <glyph glyph-name="uniE68A" unicode="&#xe68a;" 
d="M405 772l-22 22v-301l22 21h-300l21 -21v301l-21 -22h300zM83 815v-344h343v344h-343zM405 256l-22 22v-301l22 21h-257q-9 0 -15.5 6.5t-6.5 15.5v258l-21 -22h300zM83 299v-279q0 -27 19 -46t46 -19h278v344h-343zM876 772q9 0 15.5 -6t6.5 -15v-258l21 21h-300l22 -21
v301l-22 -22h257zM598 815v-344h343v280q0 26 -19 45t-46 19h-278zM919 256l-21 22v-301l21 21h-300l22 -21v301l-22 -22h300zM598 299v-344h343v344h-343zM491 493q0 -9 6 -15.5t15 -6.5t15 6.5t6 15.5v236q0 9 -6 15.5t-15 6.5t-15 -6.5t-6 -15.5v-236zM576 235
q0 9 -6 15.5t-15 6.5t-15.5 -6.5t-6.5 -15.5v-258q0 -9 6.5 -15.5t15.5 -6.5t15 6.5t6 15.5v258zM491 149q0 9 -6.5 15t-15.5 6t-15 -6t-6 -15v-172q0 -9 6 -15.5t15 -6.5t15.5 6.5t6.5 15.5v172zM941 364q8 0 14.5 6t6.5 15t-6.5 15.5t-14.5 6.5h-858q-8 0 -14.5 -6.5
t-6.5 -15.5t6.5 -15t14.5 -6h858z" />
    <glyph glyph-name="uniE68B" unicode="&#xe68b;" 
d="M512 -102l-63 61q-60 53 -94.5 83.5t-81.5 74.5t-73 73t-55.5 67t-44.5 68.5t-25 66t-10 70.5q0 101 71 170.5t175 69.5q57 0 110.5 -24.5t90.5 -67.5q37 43 90.5 67.5t110.5 24.5q104 0 175 -69.5t71 -170.5q0 -35 -10 -70.5t-25 -66t-44.5 -68.5t-55.5 -67t-73 -73
t-81.5 -74.5t-95.5 -83.5z" />
    <glyph glyph-name="uniE68D" unicode="&#xe68d;" 
d="M342 -18q20 0 37 -8q18 -7 31 -20q14 -13 21 -30.5t7 -37t-7 -37.5q-7 -17 -21 -30q-13 -13 -30.5 -21t-37.5 -8t-38 8q-17 8 -30.5 20.5t-20.5 30.5t-7 37q0 20 7 38q7 16 21 30q13 13 30.5 20.5t37.5 7.5zM772 -20q20 0 38 -8q18 -7 31 -20t21 -30q7 -18 7 -37.5
t-7 -37.5q-8 -18 -21 -30q-13 -13 -31 -21t-38 -8t-37 8t-31 21q-13 13 -20 30q-8 18 -8 37.5t8 37t20 30.5q13 13 31 20.5t37 7.5zM946 567q29 0 45 -8t23 -19t6 -24t-4 -23q-2 -6 -13 -38q-9 -29 -22 -63q-20 -59 -24 -69l-18 -54q-13 -41 -34 -57t-51 -16h-543l16 -93
h521q49 0 49 -43q0 -21 -9.5 -35.5t-38.5 -14.5h-542q-21 0 -35 9q-13 9 -22.5 24t-15.5 33t-9 33q0 2 -5 30q-5 23 -12 59q-7 38 -15 80q-3 16 -8.5 46.5t-7.5 41.5q-22 112 -45 233h-77q-16 0 -26 7.5t-17 18.5t-9 23q-3 13 -3 23q0 21 14 34.5t38 13.5h104q21 0 33 -6
q13 -7 20 -16t10 -20q1 -4 3 -10t2 -7q3 -9 5 -23q1 -10 4 -31q5 -30 6 -39h707zM946 567z" />
    <glyph glyph-name="uniE68E" unicode="&#xe68e;" 
d="M941 414v-149l36 -41l-69 -60l-63 60l38 42v123q-172 -70 -303 -129q-34 -15 -62 -15.5t-61 12.5q-234 87 -353 143q-54 26 -54.5 44t55.5 39q50 19 174 66.5t168 63.5q32 13 46.5 17.5t35.5 3.5t44 -12q41 -17 177.5 -71.5t186.5 -74.5q24 -10 35 -18.5t8.5 -15
t-6.5 -10.5t-16.5 -10t-16.5 -8v0zM589 199q25 9 88.5 38.5t99.5 44.5v-246q-4 -4 -11 -10.5t-32 -23.5t-53 -30t-72 -23.5t-90 -10.5q-49 0 -95.5 10.5t-77 24.5t-54 29t-34.5 24l-11 10v230q26 -11 194 -67q38 -14 75.5 -15t72.5 15v0zM589 199z" />
    <glyph glyph-name="uniE68F" unicode="&#xe68f;" 
d="M870 136h-715q-37 0 -63.5 26.5t-26.5 63.5v446q0 37 26.5 63.5t63.5 26.5h715q37 0 63.5 -26.5t26.5 -63.5v-446q0 -37 -26.5 -63.5t-63.5 -26.5zM400 296l241 155l-241 155v-310zM395 296zM661 5h-297q-8 0 -14 6t-6 14.5t6 14.5t14 6h297q8 0 14 -6t6 -14.5t-6 -14.5
t-14 -6z" />
    <glyph glyph-name="uniE690" unicode="&#xe690;" 
d="M527 186h413q8 0 13 5.5t5 12.5v576q0 7 -5 12.5t-13 5.5h-863q-7 0 -12.5 -5.5t-5.5 -12.5v-576q0 -7 5.5 -12.5t12.5 -5.5h414v-162h-207q-11 0 -19 -7.5t-8 -19t8 -19.5t19 -8h449q12 0 20 8t8 19.5t-8 19t-20 7.5h-206v162zM113 303q0 11 8 19t19 8h737q12 0 19.5 -8
t7.5 -19t-7.5 -19t-19.5 -8h-737q-11 0 -19 8t-8 19z" />
  </font>
</defs>
</svg>
